User log in
User registration
Registrations are open
Click here to register
Email: forgotten email?
Password: lost pass?
  Resend activation email
Get VPN Now for FREE! Protect your privacy! Use a VPN When Downloading Torrents
Your IP Address is . Location is .
Your Internet Provider is tracking your torrent activity! Hide your IP ADDRESS with a VPN!
We strongly recommend using Trust.Zone VPN to anonymize your torrenting!
Also, while you are using Trla9cfa4ust.pd4f999Zone VPN you get No Ads on Demonoid site Get pd4f999VPN Npd4f999ow!
Details for Keeler Profumo Ward and Me (1280x720p HD, 50fps, soft Eng subs)
Created by Ratio: 1.00ElsonRoa 3 years ago 0   0
TV : Documentary : HD 720p : English
Keeler Profumo Ward and Me (1280x720p HD, 50fps, soft Eng subs)

In 1962, Tom Mangold was newly arrived at the Daily Express - and his first big assignment was the John Profumo/Christine Keeler scandal. It would culminate in the evening of 30 July 1963, when Tom visited Stephen Ward, the man at the centre of the affair. The next day, Ward was scheduled to hear whether he was guilty of living off the immoral earnings of Christine Keeler and her friend Mandy Rice-Davies. Ward handed Mangold a suicide letter, which Tom has retained for more than 55 years. He will reveal its full contents for the first time on television.

Tom Mangold is one of the only surviving reporters who covered the Profumo story at such close quarters. He had under exclusive contract not only Stephen Ward but also a prostitute known as 'Miss Whiplash', who was a key witness in the trial. Ronna Ricardo confided to Tom that because she had been threatened by the police, she had lied in court to help convict Ward. She followed Tom's advice and retook the stand to withdraw her evidence.

This film reveals the inside story of the Profumo-Keeler-Ward story by the legendary BBC Panorama reporter who was there and had unique access to key players.

The story has continued to fascinate Tom Mangold. He met and interviewed Mandy Rice-Davies shortly before she died in 2013, he has obtained exclusive diaries and manuscripts, and has now received more than 20 hours of audiotape recordings of research interviews with Christine Keeler and Mandy Rice-Davies, which have never been broadcast. Christine talks about the famous Cliveden weekend, her affair with Profumo, her brief relationship with Soviet naval attaché Eugene Ivanov, and how police pressured her into manufacturing a case against Stephen Ward. Through Tom's experience of working with Stephen Ward throughout the hectic summer of 1963, he believes that Ward was no saint, but no criminal either. He was not living off Keeler or Rice-Davies, as charged and found guilty. On the contrary, Ward subsidised both women.

The programme also features an exclusive audiotape interview with Stephen Ward, recorded two weeks before his suicide, and an extract from what would have been his autobiography - all revealed for the first time. Finally, Tom casts his critical eye over the inquiry ordered by the prime minister, Harold MacMillan. Carried out by the master of the rolls, Lord Denning, Tom has obtained the diaries of the most senior civil servant on the inquiry, which point to another political sex scandal of the time that was hushed up.

First broadcast: 26 January 2020
Duration: 1 hour

Torrent dead? Request reseed at torrentgalaxy.org - or ask at elsonroa at tutanota.com

3037ef3c04610ab486103121cf30750b.md.jpg [extraimage.net]

Media info:-
General
Format : MPEG-4
Format profile : Base Media
Codec ID : isom (isom/iso2/avc1/mp41)
File size : 2.03 GiB
Duration : 58mn 54s
Overall bit rate : 4 943 Kbps

Video
ID : 1
Format : AVC
Format/Info : Advanced Video Codec
Format profile : [email protected]
Format settings, CABAC : Yes
Format settings, ReFrames : 4 frames
Codec ID : avc1
Codec ID/Info : Advanced Video Coding
Duration : 58mn 54s
Bit rate : 4 808 Kbps
Width : 1 280 pixels
Height : 720 pixels
Display aspect ratio : 16:9
Frame rate mode : Constant
Frame rate : 50.000 fps
Color space : YUV
Chroma subsampling : 4:2:0
Bit depth : 8 bits
Scan type : Progressive
Bits/(Pixel*Frame) : 0.104
Stream size : 1.98 GiB (97%)
Encoded date : UTC 1904-01-01 00:00:00
Tagged date : UTC 1904-01-01 00:00:00
Color range : Limited
Color primaries : BT.709
Transfer characteristics : BT.709
Matrix coefficients : BT.709

Audio
ID : 2
Format : AAC
Format/Info : Advanced Audio Codec
Format profile : LC
Codec ID : 40
Duration : 58mn 54s
Bit rate mode : Constant
Bit rate : 128 Kbps
Channel(s) : 2 channels
Channel positions : Front: L R
Sampling rate : 48.0 KHz
Frame rate : 46.875 fps (1024 spf)
Compression mode : Lossy
Stream size : 53.9 MiB (3%)
Language : English

Facebook Twitter Digg Reddit LinkedIn StumbleUpon Email
Show Demonoid some love with BitCoin: 1DNoidyJgB159bLJT5hDnCkZ4uQrhkfBVk How to get BitCoins?
Peers: 0 seeders, 2 leechers, 0 total - Updated: 15583 hours 1 minute 49 seconds ago
Size: 2.03 GB  

Sponsored links
Related torrents
Torrents you may also like:
Download this torrent
Extra information
Tracker: udp://tracker.opentrackr.org:1337/announce
Torrent hash: EB1C7868 3E058FA0 5006C588 7269C90F E09AE06D
Files described inside the torrent: 8 [ Click here to show the full list ]
Comments
No comments posted yet

Disclaimer: None of the files shown here are actually hosted or transmitted by this server. The links are provided solely by this site's users. The site moderation is also a service provided by the site's users. The administrator of this site (demonoid.is) cannot be held responsible for what its users post, or any other actions of its users. You may not use this site to distribute or download any material when you do not have the legal rights to do so. It is your own responsibility to adhere to these terms.

By using this site you indicate your agreement to our terms and conditions
   
Link to us | Contact us | API | Feeds/RSS | DMCA
This site and the Demonoid logo are Copyright © Demonoid. All rights reserved.

Show Demonoid some love with 1DNoidyJgB159bLJT5hDnCkZ4uQrhkfBVk