User log in
User registration
Registrations are closed. If you have an invitation code, click here, or join our twitter, we post invites often there.
Email: forgotten email?
Password: lost pass?
  Resend activation email
Protect your privacy! Use a VPN When Downloading Torrents
Your IP Address is 3.237.66.86. Location is N/A.
Your Internet Provider is tracking your torrent activity! Hide your IP ADDRESS with a VPN!
We strongly recommend using NORD VPN to anonymize your torrenting.
Also, while you are using NORD you get No Ads for Demonoid members Get VPN Now! (68% off)
Details for Miracle of Marcelino - Marcellino Pane e Vino (1955) [Bluray 1080p AVC Deu-Ita-Esp DTS-HD MA 2.0 - Deu subs]
Created by Ratio: 1.00JackieALF 1 year ago[ Add to bookmark ]
Movies : Drama : Blu-ray : Italian
Miracle of Marcelino - Marcellino Pane e Vino





Thx to the Original Uploader



Info

Original Title: Marcelin Pan y Vino
Country: Spain
Year: 1955                 
Genres: Drama, Religion
Director: Ladislao Vajda
Screenplay: José María Sánchez Silva, Ladislao Vajda
Photography: Enrique Guerner
Music by : Pablo Sarozábal
Distribution: Chamartin Falco Film


Cast

Pablito Calvo -> Marcelino
José Marco Davó -> Pascual
Juan Calvo -> Brother Cookie
Antonio Vico -> Brother Door
Joaquín Roa -> Brother Ding-Dong
Mariano Azaña -> Brother Bad
Adriano Domínguez -> Monk
Rafael Calvo -> Don Emilio
Carmen Carbonell -> Alfonsa
Isabel de Pomés -> Manuel's Mother
Francisco Arenzana -> Nicolás
Carlota Bilbao -> Nicolás' wife
Fernando Rey -> Narrator Monk, Jesus


Plot

The story revolves around Marcelino, an orphan abandoned as a baby on the steps of a monastery in nineteenth-century Spain. The monks raise the child, and Marcelino grows into a rowdy young boy. He has been warned by the monks not to visit the monastery attic, where a "very big man who will take him away" lives, but he ventures upstairs anyway, sees the man and tears off back down the stairs.
At a festival, Marcelino causes havoc when he accidentally lets some animals loose, and the new local mayor, a blacksmith whom the monks would not let adopt Marcelino because of his coarse behavior, uses the incident as an excuse to try to shut down the monastery.
Given the silent treatment by the monks, Marcelino gathers up the courage to once again enter the attic, where he sees not a bogeyman, but a beautiful statue of Christ on the Cross. Remarking that the statue looks hungry, Marcelino steals some bread and wine and offers it to the statue, which comes to life, descends from the Cross, and eats and drinks what the boy has brought him. The statue becomes Marcelino's best friend and confidant, and begins to give him religious instruction. For his part, Marcelino realizes that the statue is Christ.
The monks know something is strange when they notice bread and wine disappearing, and arrange to spy on Marcelino. One day, the statue notices that Marcelino is pensive and brooding instead of happy, and tells him that he would like to reward his kindness. Marcelino answers: "I want only to see my mother, and to see Yours after that". The statue cradles Marcelino in its arms, tells Marcelino to sleep - and Marcelino dies happy.
The monks witness the miracle through a crack in the attic door, and burst in just in time to see the dead Marcelino bathed in a heavenly glow. The statue returns to its place on the Cross, and Marcelino is buried underneath the chapel and venerated by all who visit the now flourishing monastery-turned-shrine.
The main story is told in flashback by a monk (played by Fernando Rey), who, visiting a dying girl, tells her the story of Marcelino for inspiration. The film ends with the monk entering the now completely remodeled chapel in the monastery during Mass, and saying to the crucifix once kept in the attic: "We have been speaking about You, O Lord", and then, to Marcelino's grave, which is situated nearby, "And about you, too, Marcelino".


General Info



Disc Title: Miracle of Marcelino - Marcellino Pane e Vino (1955) [Bluray 1080p AVC Deu-Ita-Esp DTS-HD MA 2.0 - Deu subs]
Disc Size:      33.654.265.732 bytes
Protection:    AACS
BD-Java:        No
Extras:        50Hz Content
BDInfo:        0.7.1



********************
PLAYLIST: 00002.MPLS
********************

                                                                                                                Total  Video                                           
Title                                                          Codec  Length  Movie Size      Disc Size      Bitrate Bitrate Main Audio Track                          Secondary Audio Track
-----                                                          ------  ------- --------------  --------------  ------- ------- ------------------                        ---------------------
00002.MPLS                                                      AVC    1:29:31 0              33.654.265.732  0,00    0,00    DTS-HD Master 2.0 (48kHz/16-bit)         


DISC INFO:

Disc Title:    Miracle of Marcelino - Marcellino Pane e Vino (1955) [Bluray 1080p AVC Deu-Ita-Esp DTS-HD MA 2.0 - Deu subs]
Disc Size:      33.654.265.732 bytes
Protection:    AACS
BD-Java:        No
Extras:        50Hz Content
BDInfo:        0.7.1

PLAYLIST REPORT:

Name:                  00002.MPLS
Length:                1:29:31.366 (h:m:s.ms)
Size:                  0 bytes
Total Bitrate:          0,00 Mbps

VIDEO:

Codec                  Bitrate            Description   
-----                  -------            -----------   
MPEG-4 AVC Video        0 kbps              1080p / 23,976 fps / 16:9 / High Profile 4.1

AUDIO:

Codec                          Language        Bitrate        Description   
-----                          --------        -------        -----------   
DTS-HD Master Audio            German          0 kbps          2.0 / 48 kHz / 16-bit (DTS Core: 2.0 / 48 kHz / 768 kbps / 16-bit)
DTS-HD Master Audio            Italian        0 kbps          2.0 / 48 kHz / 16-bit (DTS Core: 2.0 / 48 kHz / 768 kbps / 16-bit)
DTS-HD Master Audio            Spanish        0 kbps          2.0 / 48 kHz / 16-bit (DTS Core: 2.0 / 48 kHz / 768 kbps / 16-bit)

SUBTITLES:

Codec                          Language        Bitrate        Description   
-----                          --------        -------        -----------   
Presentation Graphics          German          0,000 kbps                     
Presentation Graphics          German          0,000 kbps                     

FILES:

Name            Time In        Length          Size            Total Bitrate 
----            -------        ------          ----            ------------- 
00005.M2TS      0:00:00.000    1:29:31.366    0              0             



STREAM DIAGNOSTICS:

File            PID            Type            Codec          Language                Seconds                Bitrate                Bytes          Packets       
----            ---            ----            -----          --------                --------------          --------------          -------------  -----         
00005.M2TS      4113 (0x1011)  0x1B            AVC                                    0                      0                      0              0             
00005.M2TS      4352 (0x1100)  0x86            DTS-HD MA      deu (German)            0                      0                      0              0             
00005.M2TS      4353 (0x1101)  0x86            DTS-HD MA      ita (Italian)          0                      0                      0              0             
00005.M2TS      4354 (0x1102)  0x86            DTS-HD MA      spa (Spanish)          0                      0                      0              0             
00005.M2TS      4608 (0x1200)  0x90            PGS            deu (German)            0                      0                      0              0             
00005.M2TS      4609 (0x1201)  0x90            PGS            deu (German)            0                      0                      0              0             


Disc Title: Miracle of Marcelino - Marcellino Pane e Vino (1955) [Bluray 1080p AVC Deu-Ita-Esp DTS-HD MA 2.0 - Deu subs]
Disc Size: 33.654.265.732 bytes
Protection: AACS
BD-Java: No
Playlist: 00002.MPLS
Size: 0 bytes
Length: 1:29:31.366
Total Bitrate: 0,00 Mbps
Video: MPEG-4 AVC Video / 0 kbps / 1080p / 23,976 fps / 16:9 / High Profile 4.1
Audio: German / DTS-HD Master Audio / 2.0 / 48 kHz / 16-bit (DTS Core: 2.0 / 48 kHz / 768 kbps / 16-bit)
Audio: Italian / DTS-HD Master Audio / 2.0 / 48 kHz / 16-bit (DTS Core: 2.0 / 48 kHz / 768 kbps / 16-bit)
Audio: Spanish / DTS-HD Master Audio / 2.0 / 48 kHz / 16-bit (DTS Core: 2.0 / 48 kHz / 768 kbps / 16-bit)
Subtitle: German / 0,000 kbps
Subtitle: German / 0,000 kbps


********************
PLAYLIST: 00003.MPLS
********************
                                                                                          Total  Video                                           
Title                                                          Codec  Length  Movie Size      Disc Size      Bitrate Bitrate Main Audio Track                          Secondary Audio Track
-----                                                          ------  ------- --------------  --------------  ------- ------- ------------------                        ---------------------
00003.MPLS                                                      AVC    1:27:59 0              33.654.265.732  0,00    0,00    DTS-HD Master 2.0 (48kHz/16-bit)          DTS-HD Master 2.0 (48kHz/16-bit)


DISC INFO:

Disc Title:    Miracle of Marcelino - Marcellino Pane e Vino (1955) [Bluray 1080p AVC Deu-Ita-Esp DTS-HD MA 2.0 - Deu subs]
Disc Size:      33.654.265.732 bytes
Protection:    AACS
BD-Java:        No
Extras:        50Hz Content
BDInfo:        0.7.1

PLAYLIST REPORT:

Name:                  00003.MPLS
Length:                1:27:59.774 (h:m:s.ms)
Size:                  0 bytes
Total Bitrate:          0,00 Mbps

VIDEO:

Codec                  Bitrate            Description   
-----                  -------            -----------   
MPEG-4 AVC Video        0 kbps              1080p / 23,976 fps / 16:9 / High Profile 4.1

AUDIO:

Codec                          Language        Bitrate        Description   
-----                          --------        -------        -----------   
DTS-HD Master Audio            German          0 kbps          2.0 / 48 kHz / 16-bit (DTS Core: 2.0 / 48 kHz / 768 kbps / 16-bit)
DTS-HD Master Audio            German          0 kbps          2.0 / 48 kHz / 16-bit (DTS Core: 2.0 / 48 kHz / 768 kbps / 16-bit)
DTS-HD Master Audio            German          0 kbps          2.0 / 48 kHz / 16-bit (DTS Core: 2.0 / 48 kHz / 768 kbps / 16-bit)

SUBTITLES:

Codec                          Language        Bitrate        Description   
-----                          --------        -------        -----------   
Presentation Graphics          German          0,000 kbps                     
Presentation Graphics          German          0,000 kbps                     

FILES:

Name            Time In        Length          Size            Total Bitrate 
----            -------        ------          ----            ------------- 
00007.M2TS      0:00:00.000    1:27:59.774    0              0             

CHAPTERS:

Number          Time In        Length          Avg Video Rate  Max 1-Sec Rate  Max 1-Sec Time  Max 5-Sec Rate  Max 5-Sec Time  Max 10Sec Rate  Max 10Sec Time  Avg Frame Size  Max Frame Size  Max Frame Time 
------          -------        ------          --------------  --------------  --------------  --------------  --------------  --------------  --------------  --------------  --------------  -------------- 
1              0:00:00.000    0:08:58.204    0 kbps          0 kbps          00:00:00.000    0 kbps          00:00:00.000    0 kbps          00:00:00.000    0 bytes        0 bytes        00:00:00.000   
2              0:08:58.204    0:04:50.915    0 kbps          0 kbps          00:00:00.000    0 kbps          00:00:00.000    0 kbps          00:00:00.000    0 bytes        0 bytes        00:00:00.000   
3              0:13:49.119    0:03:28.041    0 kbps          0 kbps          00:00:00.000    0 kbps          00:00:00.000    0 kbps          00:00:00.000    0 bytes        0 bytes        00:00:00.000   
4              0:17:17.161    0:06:16.167    0 kbps          0 kbps          00:00:00.000    0 kbps          00:00:00.000    0 kbps          00:00:00.000    0 bytes        0 bytes        00:00:00.000   
5              0:23:33.328    0:03:32.295    0 kbps          0 kbps          00:00:00.000    0 kbps          00:00:00.000    0 kbps          00:00:00.000    0 bytes        0 bytes        00:00:00.000   
6              0:27:05.623    0:14:00.381    0 kbps          0 kbps          00:00:00.000    0 kbps          00:00:00.000    0 kbps          00:00:00.000    0 bytes        0 bytes        00:00:00.000   
7              0:41:06.005    0:08:30.968    0 kbps          0 kbps          00:00:00.000    0 kbps          00:00:00.000    0 kbps          00:00:00.000    0 bytes        0 bytes        00:00:00.000   
8              0:49:36.974    0:07:25.278    0 kbps          0 kbps          00:00:00.000    0 kbps          00:00:00.000    0 kbps          00:00:00.000    0 bytes        0 bytes        00:00:00.000   
9              0:57:02.252    0:08:07.820    0 kbps          0 kbps          00:00:00.000    0 kbps          00:00:00.000    0 kbps          00:00:00.000    0 bytes        0 bytes        00:00:00.000   
10              1:05:10.072    0:04:50.331    0 kbps          0 kbps          00:00:00.000    0 kbps          00:00:00.000    0 kbps          00:00:00.000    0 bytes        0 bytes        00:00:00.000   
11              1:10:00.404    0:12:46.056    0 kbps          0 kbps          00:00:00.000    0 kbps          00:00:00.000    0 kbps          00:00:00.000    0 bytes        0 bytes        00:00:00.000   
12              1:22:46.461    0:05:13.313    0 kbps          0 kbps          00:00:00.000    0 kbps          00:00:00.000    0 kbps          00:00:00.000    0 bytes        0 bytes        00:00:00.000   

STREAM DIAGNOSTICS:

File            PID            Type            Codec          Language                Seconds                Bitrate                Bytes          Packets       
----            ---            ----            -----          --------                --------------          --------------          -------------  -----         
00007.M2TS      4113 (0x1011)  0x1B            AVC                                    0                      0                      0              0             
00007.M2TS      4352 (0x1100)  0x86            DTS-HD MA      deu (German)            0                      0                      0              0             
00007.M2TS      4353 (0x1101)  0x86            DTS-HD MA      deu (German)            0                      0                      0              0             
00007.M2TS      4354 (0x1102)  0x86            DTS-HD MA      deu (German)            0                      0                      0              0             
00007.M2TS      4608 (0x1200)  0x90            PGS            deu (German)            0                      0                      0              0             
00007.M2TS      4609 (0x1201)  0x90            PGS            deu (German)            0                      0                      0              0             


Disc Title: Miracle of Marcelino - Marcellino Pane e Vino (1955) [Bluray 1080p AVC Deu-Ita-Esp DTS-HD MA 2.0 - Deu subs]
Disc Size: 33.654.265.732 bytes
Protection: AACS
BD-Java: No
Playlist: 00003.MPLS
Size: 0 bytes
Length: 1:27:59.774
Total Bitrate: 0,00 Mbps
Video: MPEG-4 AVC Video / 0 kbps / 1080p / 23,976 fps / 16:9 / High Profile 4.1
Audio: German / DTS-HD Master Audio / 2.0 / 48 kHz / 16-bit (DTS Core: 2.0 / 48 kHz / 768 kbps / 16-bit)
Audio: German / DTS-HD Master Audio / 2.0 / 48 kHz / 16-bit (DTS Core: 2.0 / 48 kHz / 768 kbps / 16-bit)
Audio: German / DTS-HD Master Audio / 2.0 / 48 kHz / 16-bit (DTS Core: 2.0 / 48 kHz / 768 kbps / 16-bit)
Subtitle: German / 0,000 kbps
Subtitle: German / 0,000 kbps


********************
PLAYLIST: 00004.MPLS
********************

                                                                                                  Total  Video                                           
Title                                                          Codec  Length  Movie Size      Disc Size      Bitrate Bitrate Main Audio Track                          Secondary Audio Track
-----                                                          ------  ------- --------------  --------------  ------- ------- ------------------                        ---------------------
00004.MPLS                                                      AVC    0:03:19 0              33.654.265.732  0,00    0,00    DTS-HD Master 2.0 (48kHz/16-bit)          DTS-HD Master 2.0 (48kHz/16-bit)

DISC INFO:

Disc Title:    Miracle of Marcelino - Marcellino Pane e Vino (1955) [Bluray 1080p AVC Deu-Ita-Esp DTS-HD MA 2.0 - Deu subs]
Disc Size:      33.654.265.732 bytes
Protection:    AACS
BD-Java:        No
Extras:        50Hz Content
BDInfo:        0.7.1

PLAYLIST REPORT:

Name:                  00004.MPLS
Length:                0:03:19.000 (h:m:s.ms)
Size:                  0 bytes
Total Bitrate:          0,00 Mbps

VIDEO:

Codec                  Bitrate            Description   
-----                  -------            -----------   
MPEG-4 AVC Video        0 kbps              1080i / 25 fps / 16:9 / High Profile 4.1

AUDIO:

Codec                          Language        Bitrate        Description   
-----                          --------        -------        -----------   
DTS-HD Master Audio            Italian        0 kbps          2.0 / 48 kHz / 16-bit (DTS Core: 2.0 / 48 kHz / 768 kbps / 16-bit)
DTS-HD Master Audio            Italian        0 kbps          2.0 / 48 kHz / 16-bit (DTS Core: 2.0 / 48 kHz / 768 kbps / 16-bit)
DTS-HD Master Audio            Italian        0 kbps          2.0 / 48 kHz / 16-bit (DTS Core: 2.0 / 48 kHz / 768 kbps / 16-bit)

SUBTITLES:

Codec                          Language        Bitrate        Description   
-----                          --------        -------        -----------   
Presentation Graphics          German          0,000 kbps                     
Presentation Graphics          German          0,000 kbps                     

FILES:

Name            Time In        Length          Size            Total Bitrate 
----            -------        ------          ----            ------------- 
00009.M2TS      0:00:00.000    0:03:19.000    0              0         


Disc Title: Miracle of Marcelino - Marcellino Pane e Vino (1955) [Bluray 1080p AVC Deu-Ita-Esp DTS-HD MA 2.0 - Deu subs]
Disc Size: 33.654.265.732 bytes
Protection: AACS
BD-Java: No
Playlist: 00004.MPLS
Size: 0 bytes
Length: 0:03:19.000
Total Bitrate: 0,00 Mbps
Video: MPEG-4 AVC Video / 0 kbps / 1080i / 25 fps / 16:9 / High Profile 4.1
Audio: Italian / DTS-HD Master Audio / 2.0 / 48 kHz / 16-bit (DTS Core: 2.0 / 48 kHz / 768 kbps / 16-bit)
Audio: Italian / DTS-HD Master Audio / 2.0 / 48 kHz / 16-bit (DTS Core: 2.0 / 48 kHz / 768 kbps / 16-bit)
Audio: Italian / DTS-HD Master Audio / 2.0 / 48 kHz / 16-bit (DTS Core: 2.0 / 48 kHz / 768 kbps / 16-bit)
Subtitle: German / 0,000 kbps
Subtitle: German / 0,000 kbps


********************
PLAYLIST: 00005.MPLS
********************

                                                                                                                Total  Video                                           
Title                                                          Codec  Length  Movie Size      Disc Size      Bitrate Bitrate Main Audio Track                          Secondary Audio Track
-----                                                          ------  ------- --------------  --------------  ------- ------- ------------------                        ---------------------
00005.MPLS                                                      AVC    0:01:25 0              33.654.265.732  0,00    0,00    DTS-HD Master 2.0 (48kHz/16-bit)          DTS-HD Master 2.0 (48kHz/16-bit)





DISC INFO:

Disc Title:    Miracle of Marcelino - Marcellino Pane e Vino (1955) [Bluray 1080p AVC Deu-Ita-Esp DTS-HD MA 2.0 - Deu subs]
Disc Size:      33.654.265.732 bytes
Protection:    AACS
BD-Java:        No
Extras:        50Hz Content
BDInfo:        0.7.1

PLAYLIST REPORT:

Name:                  00005.MPLS
Length:                0:01:25.543 (h:m:s.ms)
Size:                  0 bytes
Total Bitrate:          0,00 Mbps

VIDEO:

Codec                  Bitrate            Description   
-----                  -------            -----------   
MPEG-4 AVC Video        0 kbps              1080p / 23,976 fps / 16:9 / High Profile 4.1

AUDIO:

Codec                          Language        Bitrate        Description   
-----                          --------        -------        -----------   
DTS-HD Master Audio            Italian        0 kbps          2.0 / 48 kHz / 16-bit (DTS Core: 2.0 / 48 kHz / 768 kbps / 16-bit)
DTS-HD Master Audio            Italian        0 kbps          2.0 / 48 kHz / 16-bit (DTS Core: 2.0 / 48 kHz / 768 kbps / 16-bit)
DTS-HD Master Audio            Italian        0 kbps          2.0 / 48 kHz / 16-bit (DTS Core: 2.0 / 48 kHz / 768 kbps / 16-bit)


Disc Title: Miracle of Marcelino - Marcellino Pane e Vino (1955) [Bluray 1080p AVC Deu-Ita-Esp DTS-HD MA 2.0 - Deu subs]
Disc Size: 33.654.265.732 bytes
Protection: AACS
BD-Java: No
Playlist: 00005.MPLS
Size: 0 bytes
Length: 0:01:25.543
Total Bitrate: 0,00 Mbps
Video: MPEG-4 AVC Video / 0 kbps / 1080p / 23,976 fps / 16:9 / High Profile 4.1
Audio: Italian / DTS-HD Master Audio / 2.0 / 48 kHz / 16-bit (DTS Core: 2.0 / 48 kHz / 768 kbps / 16-bit)
Audio: Italian / DTS-HD Master Audio / 2.0 / 48 kHz / 16-bit (DTS Core: 2.0 / 48 kHz / 768 kbps / 16-bit)
Audio: Italian / DTS-HD Master Audio / 2.0 / 48 kHz / 16-bit (DTS Core: 2.0 / 48 kHz / 768 kbps / 16-bit)
Subtitle: German / 0,000 kbps
Subtitle: German / 0,000 kbps


********************
PLAYLIST: 00000.MPLS
********************

                                                                                                                Total  Video                                           
Title                                                          Codec  Length  Movie Size      Disc Size      Bitrate Bitrate Main Audio Track                          Secondary Audio Track
-----                                                          ------  ------- --------------  --------------  ------- ------- ------------------                        ---------------------
00000.MPLS                                                      AVC    0:00:27 0              33.654.265.732  0,00    0,00    DTS-HD Master 5.1 (48kHz/16-bit)         

DISC INFO:

Disc Title:    Miracle of Marcelino - Marcellino Pane e Vino (1955) [Bluray 1080p AVC Deu-Ita-Esp DTS-HD MA 2.0 - Deu subs]
Disc Size:      33.654.265.732 bytes
Protection:    AACS
BD-Java:        No
Extras:        50Hz Content
BDInfo:        0.7.1

PLAYLIST REPORT:

Name:                  00000.MPLS
Length:                0:00:27.360 (h:m:s.ms)
Size:                  0 bytes
Total Bitrate:          0,00 Mbps

VIDEO:

Codec                  Bitrate            Description   
-----                  -------            -----------   
MPEG-4 AVC Video        0 kbps              1080i / 25 fps / 16:9 / High Profile 4.1

AUDIO:

Codec                          Language        Bitrate        Description   
-----                          --------        -------        -----------   
DTS-HD Master Audio            German          0 kbps          5.1 / 48 kHz / 16-bit (DTS Core: 5.1 / 48 kHz / 1509 kbps / 16-bit)

FILES:

Name            Time In        Length          Size            Total Bitrate 
----            -------        ------          ----            ------------- 
00000.M2TS      0:00:00.000    0:00:06.000    0              0             
00001.M2TS      0:00:06.000    0:00:15.360    0              0             
00002.M2TS      0:00:21.360    0:00:06.000    0              0             





Screenshots



























Facebook Twitter Digg Reddit LinkedIn StumbleUpon Email
Show Demonoid some love with BitCoin: 1DNoidyJgB159bLJT5hDnCkZ4uQrhkfBVk How to get BitCoins?
Peers: 3 seeders, 0 leechers, 9 total - Updated: 1 day ago
Size: 31.34 GB 

Sponsored links
Related torrents
Torrents you may also like:
Download this torrent
Extra information
Tracker: udp://tracker.coppersurfer.tk:6969/announce
Torrent hash: 98A6EE1B 81D2D37A DC8D47B3 B4284F4D 9BC8AC01
Files described inside the torrent: 25 [ Click here to show the full list ]
Comments
No comments posted yet

Disclaimer: None of the files shown here are actually hosted or transmitted by this server. The links are provided solely by this site's users. The site moderation is also a service provided by the site's users. The administrator of this site (demonoid.is) cannot be held responsible for what its users post, or any other actions of its users. You may not use this site to distribute or download any material when you do not have the legal rights to do so. It is your own responsibility to adhere to these terms.

By using this site you indicate your agreement to our terms and conditions
   
Link to us | Contact us | API | Commemoration | Twitter: @DemonoidBT | Feeds/RSS | DMCA
This site and the Demonoid logo are Copyright © Demonoid. All rights reserved.

Show Demonoid some love with 1DNoidyJgB159bLJT5hDnCkZ4uQrhkfBVk