User log in
User registration
Registrations are open
Click here to register
Email: forgotten email?
Password: lost pass?
  Resend activation email
Get VPN Now for FREE! Get VPN Now for FREE! Get VPN Now for FREE! Get VPN Now for FREE! Get VPN Now for FREE! Protect your privacy! Use a VPN When Downloading Torrents
Your IP Address is . Location is .
Your Internet Provider is tracking your torrent activity! Hide your IP ADDRESS with a VPN!
We strongly recommend using Trust.Zone VPN to anonymize your torrenting!
Also, while you are using Trxc21ed9ust.j07d5b8Zone VPN you get No Ads on Demonoid site Get j07d5b8VPN Nj07d5b8ow!
Details for Dr. Strangelove - Il dottor Stranamore (1964) 1080p h264 Ac3 5.1 Ita Eng Sub Ita Eng-MIRCrew
Created by Ratio: 25.74MIRCrew 11 days ago 0   0
Movies : Sci-Fi : HD 1080p / 1080i : English
Dr. Strangelove - Il dottor Stranamore (1964) 1080p h264 Ac3 5.1 Ita Eng Sub Ita Eng-MIRCrew

banner-fine-nuovo-500x-PROVA1.png
NO FOUND ONLY ORIGINAL RELEASE


My release is always in double track audio italian and Original audio
for select it use VLC or dvd player home
not use wmp

Il dottor Stranamore - Dr. Strangelove (1964)

Quality MIRCrew on HD 720p da 2,28 gb

1BE4W7Y.png

youtube_logo.png [www.youtube.com] imdb_new.png [www.imdb.com]


z9dkhbwox7y4h20uswyp.png

Il dottor Stranamore - Ovvero: come ho imparato a non preoccuparmi e ad amare la bomba (Dr. Strangelove or: How I Learned to Stop Worrying and Love the Bomb), noto più semplicemente anche come Il dottor Stranamore, è un film del 1964 diretto da Stanley Kubrick.

La pellicola, prodotta e sceneggiata dallo stesso regista statunitense, è liberamente tratta dal romanzo Red Alert (1958) di Peter George. Nel 1989, la Biblioteca del Congresso degli Stati Uniti ha inserito la pellicola nel primo gruppo di film selezionati per la conservazione nel National Film Registry.

Doctor Strangelove or: How I Learned to Stop Worrying and Love the Bomb, also known simply as Doctor Strangelove, is a 1964 film directed by Stanley Kubrick.

The film, produced and scripted by the American director himself, is loosely based on the novel Red Alert (1958) by Peter George. In 1989, the United States Library of Congress listed the film in the first group of films selected for conservation in the National Film Registry.

yzi9ctvkjepnrrza3me2.png

Titolo originale Dr. Strangelove or: How I Learned to Stop Worrying and Love the Bomb
Lingua originale inglese, russo
Paese di produzione Stati Uniti d'America, Regno Unito
Anno 1964
Durata 93 min
Dati tecnici B/N
rapporto: 1,37:1 (negativo)
1,66:1 (cinema europei)
1,85:1 (cinema americani) 1,66:1 (home video)
Genere commedia, guerra, grottesco, satirico, fantascienza
Regia Stanley Kubrick
Soggetto Peter George (romanzo)
Sceneggiatura Stanley Kubrick, Terry Southern, Peter George
Montaggio Anthony Harvey
Effetti speciali Wally Veevers
Musiche Laurie Johnson
Scenografia Ken Adam

mvuv08ei51jptqjxaqyd.png

Peter Sellers: col. Lionel Mandrake/presidente Merkin Muffley/dott. Stranamore
George C. Scott: gen. "Buck" Turgidson
Sterling Hayden: gen. Jack D. Ripper
Keenan Wynn: col. "Bat" Guano
Slim Pickens: pilota magg. T.J. "King" Kong
Peter Bull: ambasciatore sovietico Alexei De Sadesky
Tracy Reed: miss Scott
James Earl Jones: bombardiere ten. Lothar Zogg
Jack Creley: Steines
Frank Berry: ten. H.R. Dietrich, D.S.O.
Glenn Beck: ufficiale di rotta ten. W.D. Kivel
Shane Rimmer: copilota cap. G.A. "Ace" Owens
Paul Tamarin: marconista ten. B. Goldberg
Gordon Tanner: gen. Faceman
Robert O'Neil: amm. Randolph
Roy Stephens: Frank

13v5zlist13ncopa9uq.png

Il generale Jack D. Ripper, comandante di una base aerea statunitense, trasmette al suo stormo di bombardieri strategici B-52 in volo l'ordine esecutivo del piano "R", piano di attacco contro l'Unione Sovietica, lasciando intendere che avrebbe decapitato il potere del presidente degli Stati Uniti

kbk712g32e3m2tl4g1j.png

Paranoid Brigadier General Jack D. Ripper of Burpelson Air Force Base, believing that fluoridation of the American water supply is a Soviet plot to poison the U.S. populace, is able to deploy through a back door mechanism a nuclear attack on the Soviet Union without the knowledge of his superiors, including the Chair of the Joint Chiefs of Staff, General Buck Turgidson, and President Merkin Muffley. Only Ripper knows the code to recall the B-52 bombers and he has shut down communication in and out of Burpelson as a measure to protect this attack.

tctvhm53pb1a6ziz82pd.png

vlcsnap-00001.png [postimg.cc]

vlcsnap-00002.png [postimg.cc]

vlcsnap-00003.png [postimg.cc]

vlcsnap-00004.png [postimg.cc]

vlcsnap-00005.png [postimg.cc]

vlcsnap-00006.png [postimg.cc]


akic4tgr8o2yz9jcyowr.png

[spoiler]
General

Complete name : Il dottor Stranamore - Dr. Strangelove (1964) 1080p h264 Ac3 5.1 Ita Eng Sub Ita Eng-MIRCrew.mkv
Format : Matroska
Format version : Version 2
File size : 2.28 GiB
Duration : 1h 34mn
Overall bit rate : 3 443 Kbps
Movie name : MIRCrew
Encoded date : UTC 2022-09-23T07:32:49Z
Writing application : mkvmerge v5.8.0 ('No Sleep / Pillow') built on Sep 2 2012 15:37:04
Writing library : Lavf55.12.0

Video
ID : 1
Format : AVC
Format/Info : Advanced Video Codec
Format profile : [email protected]
Format settings, CABAC : Yes
Format settings, ReFrames : 4 frames
Codec ID : V_MPEG4/ISO/AVC
Duration : 1h 34mn
Bit rate : 2 600 Kbps
Width : 1 776 pixels
Height : 1 072 pixels
Display aspect ratio : 1.657
Frame rate : 23.976 fps
Color space : YUV
Chroma subsampling : 4:2:0
Bit depth : 8 bits
Scan type : Progressive
Bits/(Pixel*Frame) : 0.057
Stream size : 1.68 GiB (74%)
Title : MIRCrew
Writing library : x264 core 142 r2479 dd79a61
Encoding settings : cabac=1 / ref=1 / deblock=1:0:0
Language : Italian
Default : Yes
Forced : No
Color primaries : BT.709-5, BT.1361, IEC 61966-2-4, SMPTE RP177
Transfer characteristics : BT.709-5, BT.1361
Matrix coefficients : BT.709-5, BT.1361, IEC 61966-2-4 709, SMPTE RP177

Audio #1
ID : 2
Format : AC-3
Format/Info : Audio Coding 3
Mode extension : CM (complete main)
Codec ID : A_AC3
Duration : 1h 34mn
Bit rate mode : Constant
Bit rate : 448 Kbps
Channel(s) : 6 channels
Channel positions : Front: L C R, Side: L R, LFE
Sampling rate : 48.0 KHz
Bit depth : 16 bits
Compression mode : Lossy
Delay relative to video : -83ms
Stream size : 304 MiB (13%)
Title : Ita Ac3 5.1
Language : Italian
Default : No
Forced : No

Audio #2
ID : 3
Format : AC-3
Format/Info : Audio Coding 3
Mode extension : CM (complete main)
Codec ID : A_AC3
Duration : 1h 34mn
Bit rate mode : Constant
Bit rate : 384 Kbps
Channel(s) : 6 channels
Channel positions : Front: L C R, Side: L R, LFE
Sampling rate : 48.0 KHz
Bit depth : 16 bits
Compression mode : Lossy
Delay relative to video : -5ms
Stream size : 260 MiB (11%)
Title : Eng Ac3 5.1
Language : English
Default : No
Forced : No

Text #1
ID : 4
Format : PGS
Muxing mode : zlib
Codec ID : S_HDMV/PGS
Codec ID/Info : The same subtitle format used on BDs/HD-DVDs
Title : Ita
Language : Italian
Default : No
Forced : No

Text #2
ID : 5
Format : ASS
Codec ID : S_TEXT/ASS
Codec ID/Info : Advanced Sub Station Alpha
Compression mode : Lossless
Title : Eng
Language : English
Default : No
Forced : No


[/spoiler]


nU43TBc.gif
Facebook Twitter Digg Reddit LinkedIn StumbleUpon Email
Show Demonoid some love with BitCoin: 1DNoidyJgB159bLJT5hDnCkZ4uQrhkfBVk How to get BitCoins?
Peers: 16 seeders, 3 leechers, 560 total - Updated: 100 hours 53 minutes 37 seconds ago
Size: 2.28 GB  

Sponsored links
Related torrents
Torrents you may also like:
Download this torrent
Extra information
Tracker: udp://tracker.torrent.eu.org:451/announce
Torrent hash: 580B3B93 8260E03B 4370B991 CE3CEB2A 09A16ED4
Files described inside the torrent: 1 [ Click here to show the full list ]
Comments
No comments posted yet

Disclaimer: None of the files shown here are actually hosted or transmitted by this server. The links are provided solely by this site's users. The site moderation is also a service provided by the site's users. The administrator of this site (demonoid.is) cannot be held responsible for what its users post, or any other actions of its users. You may not use this site to distribute or download any material when you do not have the legal rights to do so. It is your own responsibility to adhere to these terms.

By using this site you indicate your agreement to our terms and conditions
   
Link to us | Contact us | API | Feeds/RSS | DMCA
This site and the Demonoid logo are Copyright © Demonoid. All rights reserved.

Show Demonoid some love with 1DNoidyJgB159bLJT5hDnCkZ4uQrhkfBVk