User log in
User registration
Registrations are open
Click here to register
Email: forgotten email?
Password: lost pass?
  Resend activation email
Get VPN Now for FREE! Get VPN Now for FREE! Get VPN Now for FREE! Protect your privacy! Use a VPN When Downloading Torrents
Your IP Address is . Location is .
Your Internet Provider is tracking your torrent activity! Hide your IP ADDRESS with a VPN!
We strongly recommend using Trust.Zone VPN to anonymize your torrenting!
Also, while you are using Trsedcb02ust.p8a7641Zone VPN you get No Ads on Demonoid site Get p8a7641VPN Np8a7641ow!
Details for Demons - Demoni Collection (1985-1991) 720p h264 Ac3 Ita Eng Sub Eng-MIRCrew
Created by Ratio: 29.80MIRCrew 5 months ago
Movies : Horror : HD 720p : English
Demons - Demoni Collection (1985-1991) 720p h264 Ac3 Ita Eng Sub Eng-MIRCrew

banner-fine-nuovo-500x-PROVA1.png
NO FOUND ONLY ORIGINAL RELEASE


My release is always in double track audio italian and Original audio
for select it use VLC or dvd player home
not use wmp

On this release:

Demoni - Demons (1985) 720p h264 Ac3 Ita Eng Sub Eng-MIRCrew

Demoni 2 l'incubo ritorna (1986) 720p h264 Ac3 Ita Eng Sub Eng-MIRCrew

Demoni 3 - Black Demons (1991) 720p h264 Ac3 Ita Eng Sub Eng-MIRCrew


Quality MIRCrew on HD 720p da 4,26 gb

3vzy0jw.png

youtube_logo.png [www.youtube.com] imdb_new.png [www.imdb.com]


z9dkhbwox7y4h20uswyp.png

Dopo l'uscita del giallo La casa con la scala nel buio, dell'action Blastfighter e dell'horror fantascientifico Shark - Rosso nell'oceano, il regista Lamberto Bava ha considerato la possibilità di realizzare un film horror in tre parti scritto da Dardano Sacchetti, il terzo diretto da Umberto Lenzi

yzi9ctvkjepnrrza3me2.png

Titolo originale Demons 1-2-3
Lingua originale italiano
Paese di produzione Italia

13v5zlist13ncopa9uq.png

Dopo l'uscita del giallo La casa con la scala nel buio, dell'action Blastfighter e dell'horror fantascientifico Shark - Rosso nell'oceano, il regista Lamberto Bava ha considerato la possibilità di realizzare un film horror in tre parti scritto da Dardano Sacchetti

kbk712g32e3m2tl4g1j.png

After the release of the crime mystery The house with the staircase in the dark, the action Blastfighter and the sci-fi horror Shark - Red in the ocean, the director Lamberto Bava considered the possibility of making a horror film in three parts written by Dardano Sacchetti

tctvhm53pb1a6ziz82pd.png


vlcsnap-00001.png [postimages.org]

vlcsnap-00002.png [postimages.org]

vlcsnap-00003.png [postimages.org]

vlcsnap-00004.png [postimages.org]

vlcsnap-00005.png [postimages.org]

vlcsnap-003-1.png [postimages.org]


akic4tgr8o2yz9jcyowr.png

[spoiler]
Tutti e tre stessi parametri

General

Complete name : Demoni - Demons Collection (1985-1991) 720p h264 Ac3 Ita Eng Sub Eng-MIRCrew\Demoni - Demons (1985) 720p h264 Ac3 Ita Eng Sub Eng-MIRCrew.mkv
Format : Matroska
Format version : Version 2
File size : 1.41 GiB
Duration : 1h 28mn
Overall bit rate : 2 272 Kbps
Movie name : MIRCrew
Encoded date : UTC 2022-09-07T14:09:37Z
Writing application : mkvmerge v5.8.0 ('No Sleep / Pillow') built on Sep 2 2012 15:37:04
Writing library : Lavf55.12.0

Video
ID : 1
Format : AVC
Format/Info : Advanced Video Codec
Format profile : [email protected]
Format settings, CABAC : Yes
Format settings, ReFrames : 4 frames
Codec ID : V_MPEG4/ISO/AVC
Duration : 1h 28mn
Bit rate : 1 900 Kbps
Width : 1 104 pixels
Height : 720 pixels
Display aspect ratio : 3:2
Frame rate : 23.976 fps
Color space : YUV
Chroma subsampling : 4:2:0
Bit depth : 8 bits
Scan type : Progressive
Bits/(Pixel*Frame) : 0.100
Stream size : 1.14 GiB (81%)
Title : MIRCrew
Writing library : x264 core 142 r2479 dd79a61
Encoding settings : cabac=1 / ref=1 / deblock=1:0:0
Language : Italian
Default : Yes
Forced : No
Color primaries : BT.709-5, BT.1361, IEC 61966-2-4, SMPTE RP177
Transfer characteristics : BT.709-5, BT.1361
Matrix coefficients : BT.709-5, BT.1361, IEC 61966-2-4 709, SMPTE RP177

Audio #1
ID : 2
Format : AC-3
Format/Info : Audio Coding 3
Mode extension : CM (complete main)
Codec ID : A_AC3
Duration : 1h 28mn
Bit rate mode : Constant
Bit rate : 192 Kbps
Channel(s) : 2 channels
Channel positions : Front: L R
Sampling rate : 48.0 KHz
Bit depth : 16 bits
Compression mode : Lossy
Delay relative to video : -5ms
Stream size : 122 MiB (8%)
Title : Ita Ac3 2.0
Language : Italian
Default : Yes
Forced : No

Audio #2
ID : 3
Format : AC-3
Format/Info : Audio Coding 3
Mode extension : CM (complete main)
Codec ID : A_AC3
Duration : 1h 28mn
Bit rate mode : Constant
Bit rate : 192 Kbps
Channel(s) : 2 channels
Channel positions : Front: L R
Sampling rate : 48.0 KHz
Bit depth : 16 bits
Compression mode : Lossy
Delay relative to video : -5ms
Stream size : 122 MiB (8%)
Title : Eng Ac3 2.0
Language : English
Default : No
Forced : No

Text
ID : 4
Format : ASS
Codec ID : S_TEXT/ASS
Codec ID/Info : Advanced Sub Station Alpha
Compression mode : Lossless
Title : Eng
Language : English
Default : No
Forced : No

Menu
00:00:00.000 : :00:00:00.000
00:06:41.985 : :00:06:41.818
00:13:48.911 : :00:13:48.828
00:21:05.973 : :00:21:05.681
00:32:47.674 : :00:32:47.382
00:39:22.068 : :00:39:21.776
00:51:48.146 : :00:51:47.855
00:58:09.027 : :00:58:08.902
01:05:26.547 : :01:05:26.339
01:14:07.359 : :01:14:07.193
01:21:32.387 : :01:21:32.304
01:26:08.329 : :01:26:08.163


[/spoiler]


nU43TBc.gif
Facebook Twitter Digg Reddit LinkedIn StumbleUpon Email
Show Demonoid some love with BitCoin: 1DNoidyJgB159bLJT5hDnCkZ4uQrhkfBVk How to get BitCoins?
Peers: 1 seeders, 0 leechers, 748 total - Updated: 156 hours 25 minutes 24 seconds ago
Size: 4.26 GB  

Sponsored links
Related torrents
Torrents you may also like:
Download this torrent
Extra information
Tracker: udp://tracker.torrent.eu.org:451/announce
Torrent hash: 558B2625 BEE487B8 5F6ACE1D 01C47F29 2CB1E108
Files described inside the torrent: 3 [ Click here to show the full list ]
Comments
No comments posted yet

Disclaimer: None of the files shown here are actually hosted or transmitted by this server. The links are provided solely by this site's users. The site moderation is also a service provided by the site's users. The administrator of this site (demonoid.is) cannot be held responsible for what its users post, or any other actions of its users. You may not use this site to distribute or download any material when you do not have the legal rights to do so. It is your own responsibility to adhere to these terms.

By using this site you indicate your agreement to our terms and conditions
   
Link to us | Contact us | API | Feeds/RSS | DMCA
This site and the Demonoid logo are Copyright © Demonoid. All rights reserved.

Show Demonoid some love with 1DNoidyJgB159bLJT5hDnCkZ4uQrhkfBVk