User log in
User registration
Registrations are open
Click here to register
Email: forgotten email?
Password: lost pass?
  Resend activation email
Get VPN Now for FREE! Get VPN Now for FREE! Get VPN Now for FREE! Get VPN Now for FREE! Get VPN Now for FREE! Protect your privacy! Use a VPN When Downloading Torrents
Your IP Address is . Location is .
Your Internet Provider is tracking your torrent activity! Hide your IP ADDRESS with a VPN!
We strongly recommend using Trust.Zone VPN to anonymize your torrenting!
Also, while you are using Trqbd65aeust.b9a08c4Zone VPN you get No Ads on Demonoid site Get b9a08c4VPN Nb9a08c4ow!
Details for Whore (puttana) (1991) 720p h264 Ac3 Ita Eng Sub Eng-MIRCrew
Created by Ratio: 25.72MIRCrew 5 months ago 0   0
Movies : Drama : HD 720p : English
Whore (puttana) (1991) 720p h264 Ac3 Ita Eng Sub Eng-MIRCrew

new-banner-mircrew.png


NO FOUND ONLY ORIGINAL RELEASE

My release is always in double track audio italian and Original audio
for select it use VLC or dvd player home
not use wmp


Whore (puttana) (1991)

Quality MIRCrew in HD 720p da 1,35 gb

nauN4Up.png

youtube_logo.png [www.youtube.com]

imdb_new.png [www.imdb.com]

fGu1rKv.png

Titolo originale Whore
Lingua originale inglese
Paese di produzione Stati Uniti d'America
Anno 1991
Durata 85 min
Genere drammatico
Regia Ken Russell
Soggetto David Hines
Sceneggiatura Ken Russell, Deborah Dalton

W7kBqiE.png



Theresa Russell: Liz
Benjamin Mouton: Blake
Antonio Fargas: Rasta
Elizabeth Morehead: Katie
Sanjay: indiano
Daniel Quinn: uomo aggressivo
Jason Saucier: Bill
Michael Crabtree: uomo in auto
Doug Mac Hugh: cliente al ristorante
Jared Barclay: cliente che ha infarto in auto
Amanda Goodwin: amica di Liz
Jason Kristofer: ragazzino timido nel furgone
Robert O'Reilly: uomo giovane in auto
Charles Macaulay: uomo anziano in auto
Tom Willard: hippy



bFK3ggF.png

Los Angeles. La prostituta Liz cerca di abbordare dei clienti su una strada trafficata. Si ferma un uomo su un furgone, ma lei lo manda via poiché l'ultima volta che aveva accettato di salire in un furgone, all'interno c'erano diversi uomini che l'avevano stuprata e quasi uccisa

48xHWWH.png

A night in the life of a cynical prostitute forms the basis of Ken Russell's portrait of the world's oldest profession.

20220628-114323.png [postimages.org]

20220628-114331.png [postimages.org]

20220628-114338.png [postimages.org]

20220628-114343.png [postimages.org]


aVrMohH.png

[spoiler]

General

Complete name : Whore - Puttana (1991) 720p h264 Ac3 Ita Eng Sub Eng-MIRCrew.mkv
Format : Matroska
Format version : Version 2
File size : 1.35 GiB
Duration : 1h 25mn
Overall bit rate : 2 261 Kbps
Movie name : MIRCrew
Encoded date : UTC 2022-06-25T05:32:19Z
Writing application : mkvmerge v5.8.0 ('No Sleep / Pillow') built on Sep 2 2012 15:37:04
Writing library : Lavf55.12.0

Video
ID : 1
Format : AVC
Format/Info : Advanced Video Codec
Format profile : [email protected]
Format settings, CABAC : Yes
Format settings, ReFrames : 4 frames
Codec ID : V_MPEG4/ISO/AVC
Duration : 1h 25mn
Bit rate : 1 900 Kbps
Width : 1 264 pixels
Height : 720 pixels
Display aspect ratio : 16:9
Frame rate : 23.976 fps
Color space : YUV
Chroma subsampling : 4:2:0
Bit depth : 8 bits
Scan type : Progressive
Bits/(Pixel*Frame) : 0.087
Stream size : 1.09 GiB (81%)
Title : MIRCrew
Writing library : x264 core 142 r2479 dd79a61
Encoding settings : cabac=1 / ref=1 / deblock=1:0:0
Language : Italian
Default : Yes
Forced : No
Color primaries : BT.709-5, BT.1361, IEC 61966-2-4, SMPTE RP177
Transfer characteristics : BT.709-5, BT.1361
Matrix coefficients : BT.709-5, BT.1361, IEC 61966-2-4 709, SMPTE RP177

Audio #1
ID : 2
Format : AC-3
Format/Info : Audio Coding 3
Mode extension : CM (complete main)
Codec ID : A_AC3
Duration : 1h 25mn
Bit rate mode : Constant
Bit rate : 192 Kbps
Channel(s) : 2 channels
Channel positions : Front: L R
Sampling rate : 48.0 KHz
Bit depth : 16 bits
Compression mode : Lossy
Delay relative to video : -5ms
Stream size : 117 MiB (8%)
Title : Ita Ac3 2.0
Language : Italian
Default : Yes
Forced : No

Audio #2
ID : 3
Format : AC-3
Format/Info : Audio Coding 3
Mode extension : CM (complete main)
Codec ID : A_AC3
Duration : 1h 25mn
Bit rate mode : Constant
Bit rate : 192 Kbps
Channel(s) : 2 channels
Channel positions : Front: L R
Sampling rate : 48.0 KHz
Bit depth : 16 bits
Compression mode : Lossy
Delay relative to video : -5ms
Stream size : 117 MiB (8%)
Title : Eng Ac3 2.0
Language : English
Default : No
Forced : No

Text
ID : 4
Format : ASS
Codec ID : S_TEXT/ASS
Codec ID/Info : Advanced Sub Station Alpha
Compression mode : Lossless
Title : Eng
Language : English
Default : No
Forced : No




[/spoiler]



cWb6Z.gif

nU43TBc.gif
Facebook Twitter Digg Reddit LinkedIn StumbleUpon Email
Show Demonoid some love with BitCoin: 1DNoidyJgB159bLJT5hDnCkZ4uQrhkfBVk How to get BitCoins?
Peers: 3 seeders, 1 leechers, 1979 total - Updated: 1048 hours 21 minutes 46 seconds ago
Size: 1.35 GB  

Sponsored links
Related torrents
Torrents you may also like:
Download this torrent
Extra information
Tracker: udp://tracker.torrent.eu.org:451/announce
Torrent hash: D656783C 2A0C53F0 3F479BDA 9636EECD BF683BF2
Files described inside the torrent: 1 [ Click here to show the full list ]
Comments
No comments posted yet

Disclaimer: None of the files shown here are actually hosted or transmitted by this server. The links are provided solely by this site's users. The site moderation is also a service provided by the site's users. The administrator of this site (demonoid.is) cannot be held responsible for what its users post, or any other actions of its users. You may not use this site to distribute or download any material when you do not have the legal rights to do so. It is your own responsibility to adhere to these terms.

By using this site you indicate your agreement to our terms and conditions
   
Link to us | Contact us | API | Feeds/RSS | DMCA
This site and the Demonoid logo are Copyright © Demonoid. All rights reserved.

Show Demonoid some love with 1DNoidyJgB159bLJT5hDnCkZ4uQrhkfBVk