User log in
User registration
Registrations are open
Click here to register
Email: forgotten email?
Password: lost pass?
  Resend activation email
Get VPN Now for FREE! Get VPN Now for FREE! Get VPN Now for FREE! Get VPN Now for FREE! Get VPN Now for FREE! Protect your privacy! Use a VPN When Downloading Torrents
Your IP Address is . Location is .
Your Internet Provider is tracking your torrent activity! Hide your IP ADDRESS with a VPN!
We strongly recommend using Trust.Zone VPN to anonymize your torrenting!
Also, while you are using Trsedcb02ust.p8a7641Zone VPN you get No Ads on Demonoid site Get p8a7641VPN Np8a7641ow!
Details for My.Own.Private.Idaho - Belli.E.Dannati.1991.iTA.ENG.AC3.SUB.iTA.ENG.BluRay.HEVC.1080p.x265.jeddak-MIRCrew
Created by Ratio: 1.00jeddak 12 months ago
Movies : Drama : HEVC / x265 : English
Jeddak-Presenta.png

Belli-E-Dannati.png

Titolo.png
Belli E Dannati

Scheda.png
Titolo originale: My Own Private Idaho
Genere: Drammatico
Anno: 1991
Regia: Gus Van Sant
Attori: River Phoenix, Keanu Reeves, James Russo, William Richert, Rodney Harvey, Chiara Caselli, Mike Parker, Jessie Thomas, Flea, Grace Zabriskie, Tom Troupe, Sally Curtice, James Caviezel, Udo Kier, Robert Lee Pitchlynn, Mickey Cottrell
Paese: USA
Durata: 104 min
Distribuzione: PENTA DISTRIBUZIONE (1992) - VIVIVDEO - PANARECORD
Sceneggiatura: Gus Van Sant
Fotografia: John J. Campbell, Eric Alan Edwards
Montaggio: Curtiss Clayton
Musiche: Bill Stafford
Produzione: LAURIE PARKER


Trama.png
Mike Waters, un giovane quasi sempre in preda a convulsioni da astinenza a causa del continuo abuso di droga, cui ricorre anche perché malato di narcolessia, vaga lungo le strade di Portland, nell'Oregon, alla ricerca della madre che lo ha abbandonato da piccolo, di cui sono pieni i suoi sogni e le sue allucinazioni. Gli unici a soccorrerlo e a dimostrargli a modo loro una qualche solidarietà sono altri drogati e sbandati che Mike va incontrando nei suoi precari rifugi. Fra loro Scott Favor, un ragazzo proveniente da una famiglia-bene, il cui padre, sindaco della città, prima lo cerca affannosamente tramite la polizia, poi, al primo tentativo di rientro, non sa far altro che ricoprirlo di rimbrotti e ingiurie. Il ragazzo torna quindi alla strada e alla scuola di teppismo di cui la strada è l'habitat privilegiato, diventando amico di Mike che si innamora di lui. Ma quando, sulle tracce del vaghi ricordi di Mike, pervengono a un cascinale in degrado, nel quale l'ipotetica madre avrebbe ultimamente prestato servizio, vi incontrano l'avvenente Carmela. Scott se ne innamora e parte con lei senza una parola per Mike, che continua da solo il suo vagabondaggio.

Nr4Nio9.png [www.imdb.com]

Trailer.png
H13txCA.png [youtu.be]

Screenshots.png
Belli-E-Dannati-1.png [postimg.cc]

Belli-E-Dannati-2.png [postimg.cc]

Belli-E-Dannati-3.png [postimg.cc]

Belli-E-Dannati-4.png [postimg.cc]

Belli-E-Dannati-5.png [postimg.cc]

Belli-E-Dannati-6.png [postimg.cc]

Dati-File.png
General
Unique ID : 215678691653729390640883505257872843349 (0xA242347EF51F746D983EE22F7F736255)
Complete name : Belli.E.Dannati.1991.iTA.ENG.AC3.SUB.iTA.ENG.BluRay.HEVC.1080p.x265.jeddak-MIRCrew.mkv
Format : Matroska
Format version : Version 2
File size : 2.21 GiB
Duration : 1 h 43 min
Overall bit rate : 3 049 kb/s
Movie name : Belli.E.Dannati.1991.iTA.ENG.AC3.SUB.iTA.ENG.BluRay.HEVC.1080p.x265.jeddak-MIRCrew
Encoded date : UTC 2022-02-12 09:10:05
Writing application : mkvmerge v5.6.0 ('Kenya Kane') built on May 27 2012 16:44:04
Writing library : libebml v1.2.3 + libmatroska v1.3.0 / Lavf58.76.100

Video
ID : 1
Format : HEVC
Format/Info : High Efficiency Video Coding
Format profile : [email protected]@Main
Codec ID : V_MPEGH/ISO/HEVC
Duration : 1 h 43 min
Bit rate : 2 092 kb/s
Width : 1 920 pixels
Height : 1 040 pixels
Display aspect ratio : 1.85:1
Frame rate mode : Constant
Frame rate : 23.976 (24000/1001) FPS
Color space : YUV
Chroma subsampling : 4:2:0
Bit depth : 8 bits
Bits/(Pixel*Frame) : 0.044
Stream size : 1.52 GiB (69%)
Title : ...::: jeddak MIRCrew :::...
Writing library : x265 3.5+1-f0c1022b6:[Linux][GCC 9.3.0][64 bit] 8bit+10bit+12bit
Encoding settings : cpuid=1111039 / frame-threads=5 / wpp / no-pmode / no-pme / no-psnr / no-ssim / log-level=2 / input-csp=1 / input-res=1920x1040 / interlace=0 / total-frames=0 / level-idc=40 / high-tier=1 / uhd-bd=0 / ref=3 / no-allow-non-conformance / no-repeat-headers / annexb / no-aud / no-hrd / info / hash=0 / no-temporal-layers / open-gop / min-keyint=24 / keyint=240 / gop-lookahead=0 / bframes=4 / b-adapt=2 / b-pyramid / bframe-bias=0 / rc-lookahead=20 / lookahead-slices=6 / scenecut=40 / hist-scenecut=0 / radl=0 / no-splice / no-intra-refresh / ctu=64 / min-cu-size=8 / no-rect / no-amp / max-tu-size=32 / tu-inter-depth=1 / tu-intra-depth=1 / limit-tu=0 / rdoq-level=0 / dynamic-rd=0.00 / no-ssim-rd / signhide / no-tskip / nr-intra=0 / nr-inter=0 / no-constrained-intra / strong-intra-smoothing / max-merge=3 / limit-refs=1 / no-limit-modes / me=1 / subme=2 / merange=57 / temporal-mvp / no-frame-dup / no-hme / weightp / no-weightb / no-analyze-src-pics / deblock=0:0 / sao / no-sao-non-deblock / rd=3 / selective-sao=4 / early-skip / rskip / no-fast-intra / no-tskip-fast / no-cu-lossless / b-intra / no-splitrd-skip / rdpenalty=0 / psy-rd=2.00 / psy-rdoq=0.00 / no-rd-refine / no-lossless / cbqpoffs=0 / crqpoffs=0 / rc=abr / bitrate=2100 / qcomp=0.60 / qpstep=4 / stats-write=0 / stats-read=0 / ipratio=1.40 / pbratio=1.30 / aq-mode=2 / aq-strength=1.00 / cutree / zone-count=0 / no-strict-cbr / qg-size=32 / no-rc-grain / qpmax=69 / qpmin=0 / no-const-vbv / sar=1 / overscan=0 / videoformat=5 / range=0 / colorprim=1 / transfer=1 / colormatrix=1 / chromaloc=0 / display-window=0 / cll=0,0 / min-luma=0 / max-luma=255 / log2-max-poc-lsb=8 / vui-timing-info / vui-hrd-info / slices=1 / no-opt-qp-pps / no-opt-ref-list-length-pps / no-multi-pass-opt-rps / scenecut-bias=0.05 / hist-threshold=0.03 / no-opt-cu-delta-qp / no-aq-motion / no-hdr10 / no-hdr10-opt / no-dhdr10-opt / no-idr-recovery-sei / analysis-reuse-level=0 / analysis-save-reuse-level=0 / analysis-load-reuse-level=0 / scale-factor=0 / refine-intra=0 / refine-inter=0 / refine-mv=1 / refine-ctu-distortion=0 / no-limit-sao / ctu-info=0 / no-lowpass-dct / refine-analysis-type=0 / copy-pic=1 / max-ausize-factor=1.0 / no-dynamic-refine / no-single-sei / no-hevc-aq / no-svt / no-field / qp-adaptation-range=1.00 / scenecut-aware-qp=0conformance-window-offsets / right=0 / bottom=0 / decoder-max-rate=0 / no-vbv-live-multi-pass
Default : Yes
Forced : No
Color range : Limited
Color primaries : BT.709
Transfer characteristics : BT.709
Matrix coefficients : BT.709
Duration_Source : General_Duration

Audio #1
ID : 2
Format : AC-3
Format/Info : Audio Coding 3
Commercial name : Dolby Digital
Codec ID : A_AC3
Duration : 1 h 43 min
Bit rate mode : Constant
Bit rate : 448 kb/s
Channel(s) : 6 channels
Channel layout : L R C LFE Ls Rs
Sampling rate : 48.0 kHz
Frame rate : 31.250 FPS (1536 SPF)
Compression mode : Lossy
Delay relative to video : -5 ms
Stream size : 333 MiB (15%)
Title : iTA AC3 5.1
Language : Italian
Service kind : Complete Main
Default : Yes
Forced : No

Audio #2
ID : 3
Format : AC-3
Format/Info : Audio Coding 3
Commercial name : Dolby Digital
Codec ID : A_AC3
Duration : 1 h 43 min
Bit rate mode : Constant
Bit rate : 448 kb/s
Channel(s) : 6 channels
Channel layout : L R C LFE Ls Rs
Sampling rate : 48.0 kHz
Frame rate : 31.250 FPS (1536 SPF)
Compression mode : Lossy
Delay relative to video : -5 ms
Stream size : 333 MiB (15%)
Title : ENG AC3 5.1
Language : English
Service kind : Complete Main
Default : No
Forced : No

Text #1
ID : 4
Format : UTF-8
Codec ID : S_TEXT/UTF8
Codec ID/Info : UTF-8 Plain Text
Title : iTA FORCED - SRT
Language : Italian
Default : No
Forced : Yes

Text #2
ID : 5
Format : PGS
Codec ID : S_HDMV/PGS
Codec ID/Info : Picture based subtitle format used on BDs/HD-DVDs
Title : iTA FORCED - PGS
Language : Italian
Default : Yes
Forced : Yes

Text #3
ID : 6
Format : PGS
Codec ID : S_HDMV/PGS
Codec ID/Info : Picture based subtitle format used on BDs/HD-DVDs
Duration : 1 h 43 min
Title : iTA NON UDENTI - PGS
Language : Italian
Default : No
Forced : No

Text #4
ID : 7
Format : PGS
Codec ID : S_HDMV/PGS
Codec ID/Info : Picture based subtitle format used on BDs/HD-DVDs
Duration : 1 h 43 min
Title : ENG NON UDENTI - PGS
Language : English
Default : No
Forced : No

Menu
00:00:00.000 : :Capitolo 01
00:08:04.985 : :Capitolo 02
00:17:18.788 : :Capitolo 03
00:26:32.007 : :Capitolo 04
00:37:19.612 : :Capitolo 05
00:48:33.035 : :Capitolo 06
01:04:28.365 : :Capitolo 07
01:09:45.973 : :Capitolo 08
01:17:00.324 : :Capitolo 09
01:22:50.799 : :Capitolo 10
01:28:53.411 : :Capitolo 11
01:35:28.640 : :Capitolo 12
Facebook Twitter Digg Reddit LinkedIn StumbleUpon Email
Show Demonoid some love with BitCoin: 1DNoidyJgB159bLJT5hDnCkZ4uQrhkfBVk How to get BitCoins?
Peers: 5 seeders, 0 leechers, 733 total - Updated: 1235 hours 10 minutes 25 seconds ago
Size: 2.21 GB  

Sponsored links
Related torrents
Torrents you may also like:
Download this torrent
Extra information
Tracker: udp://tracker.torrent.eu.org:451/announce
Torrent hash: 79772E59 4D9E66D7 A1246FE8 1C1E196A 643EE038
Files described inside the torrent: 1 [ Click here to show the full list ]
Comments
No comments posted yet

Disclaimer: None of the files shown here are actually hosted or transmitted by this server. The links are provided solely by this site's users. The site moderation is also a service provided by the site's users. The administrator of this site (demonoid.is) cannot be held responsible for what its users post, or any other actions of its users. You may not use this site to distribute or download any material when you do not have the legal rights to do so. It is your own responsibility to adhere to these terms.

By using this site you indicate your agreement to our terms and conditions
   
Link to us | Contact us | API | Feeds/RSS | DMCA
This site and the Demonoid logo are Copyright © Demonoid. All rights reserved.

Show Demonoid some love with 1DNoidyJgB159bLJT5hDnCkZ4uQrhkfBVk