User log in
User registration
Registrations are closed. If you have an invitation code, click here, or join our twitter, we post invites often there.
Email: forgotten email?
Password: lost pass?
  Resend activation email
Protect your privacy! Use a VPN When Downloading Torrents
Your IP Address is . Location is .
Your Internet Provider is tracking your torrent activity! Hide your IP ADDRESS with a VPN!
We strongly recommend using NORD VPN to anonymize your torrenting.
Also, while you are using NORD you get No Ads for Demonoid members Get VPN Now!
Details for Cabin Fever 2 Spring Fever 2009 x264 720p Esub BluRay Dual Audio English Hindi GOPISAHI
Created by Ratio: 1.00gopisahi 1 year ago[ Add to bookmark ]
Movies : Horror : HD 720p : Hindi

https://www.gopisahi.in/




Cabin Fever 2 Spring Fever 2009 x264 720p Esub BluRay Dual Audio English Hindi GOPISAHI

Format                        : Matroska
Format version                : Version 4
File size                      : 649 MiB
Duration                      : 1 h 26 min
Overall bit rate              : 1 054 kb/s
Movie name                    : Cabin Fever 2 Spring Fever 2009 GOPISAHI

Video
Format                        : AVC
Format/Info                    : Advanced Video Codec
Format profile                : [email protected]
Format settings                : CABAC / 8 Ref Frames
Format settings, CABAC        : Yes
Format settings, Reference fra : 8 frames
Codec ID                      : V_MPEG4/ISO/AVC
Duration                      : 1 h 26 min
Bit rate                      : 891 kb/s
Width                          : 1 280 pixels
Height                        : 544 pixels
Display aspect ratio          : 2.35:1
Frame rate mode                : Constant
Frame rate                    : 24.000 FPS
Color space                    : YUV
Chroma subsampling            : 4:2:0
Bit depth                      : 8 bits
Scan type                      : Progressive
Bits/(Pixel*Frame)            : 0.053
Stream size                    : 548 MiB (84%)
Title                          : GOPISAHI
Writing library                : x264 core 152 r2851 ba24899

Audio #1
Format                        : AAC LC
Duration                      : 1 h 26 min
Bit rate                      : 96.0 kb/s
Channel(s)                    : 2 channels
Channel layout                : L R
Sampling rate                  : 48.0 kHz
Frame rate                    : 46.875 FPS (1024 SPF)
Compression mode              : Lossy
Stream size                    : 59.5 MiB (9%)
Title                          : Stereo
Language                      : Hindi

Audio #2
Format                        : AAC LC
Duration                      : 1 h 26 min
Bit rate                      : 64.7 kb/s
Channel(s)                    : 2 channels
Channel layout                : L R
Sampling rate                  : 48.0 kHz
Frame rate                    : 46.875 FPS (1024 SPF)
Compression mode              : Lossy
Stream size                    : 39.8 MiB (6%)
Title                          : GOPISAHI
Language                      : English

Text
Language                      : English







Facebook Twitter Digg Reddit LinkedIn StumbleUpon Email
Show Demonoid some love with BitCoin: 1DNoidyJgB159bLJT5hDnCkZ4uQrhkfBVk How to get BitCoins?
Peers: 1 seeders, 0 leechers, 2 total - Updated: 27 days ago [ Update now ]
Size: 649.05 MB 

Sponsored links
Related torrents
Torrents you may also like:
Download this torrent
Extra information
Tracker: udp://tracker.leechers-paradise.org:6969/announce
Torrent hash: 941858D8 493845FC EA1792CB 08DD4984 7FEDA0D5
Files described inside the torrent: 1 [ Click here to show the full list ]
Comments
No comments posted yet

Disclaimer: None of the files shown here are actually hosted or transmitted by this server. The links are provided solely by this site's users. The site moderation is also a service provided by the site's users. The administrator of this site (demonoid.is) cannot be held responsible for what its users post, or any other actions of its users. You may not use this site to distribute or download any material when you do not have the legal rights to do so. It is your own responsibility to adhere to these terms.

By using this site you indicate your agreement to our terms and conditions
   
Link to us | Contact us | API | Commemoration | Twitter: @DemonoidBT | Feeds/RSS | DMCA
This site and the Demonoid logo are Copyright © Demonoid. All rights reserved.

Show Demonoid some love with 1DNoidyJgB159bLJT5hDnCkZ4uQrhkfBVk