User log in
User registration
Registrations are closed. If you have an invitation code, click here, or join our twitter, we post invites often there.
Email: forgotten email?
Password: lost pass?
  Resend activation email
Protect your privacy! Use a VPN When Downloading Torrents
Your IP Address is . Location is .
Your Internet Provider is tracking your torrent activity! Hide your IP ADDRESS with a VPN!
We strongly recommend using NORD VPN to anonymize your torrenting.
Also, while you are using NORD you get No Ads for Demonoid members Get VPN Now!
Details for Worzel Gummidge (2019) S01E01 The Scarecrow of Scatterbrook (1280x720p HD, 50fps, soft Eng subs)
Created by Ratio: 1.00ElsonRoa 1 year ago[ Add to bookmark ]
TV : Comedy : HD 720p : English
Worzel Gummidge (2019) S01E01 The Scarecrow of Scatterbrook (1280x720p HD, 50fps, soft Eng subs)

Siblings Susan and John arrive at Scatterbrook Farm, home of the Braithwaites, to little fanfare. It's been a poor harvest and their hosts aren't thrilled to have two amateur farmhands around the place during such lean times. No-one on Scatterbrook Farm is more troubled by the late harvest than walking, talking scarecrow Worzel Gummidge. Worzel is strictly forbidden from talking to humans, but after mistaking John and Susan for fellow scarecrows, his game is up.

Worzel realises he will only save the day by going against some of his better instincts. He draws on the youthful exuberance of John and Susan, seeks the wisdom of his long-estranged Aunt Sally, and negotiates a testy deal with the frightful rooks and crows of Scatterbrook. With the help of the mystical Tree of Tree and his pet robin, Winter George, Worzel orchestrates a gathering of his fellow scarecrows on the night of the next harvest moon. Can he save the day? 

First broadcast:  26 December 2019
Duration:  1 hour

Torrent dead? Request reseed at torrentgalaxy.org - or ask at elsonroa at tutanota.com



Media info:-
General
Format : MPEG-4
Format profile : Base Media
Codec ID : isom (isom/iso2/avc1/mp41)
File size : 1.98 GiB
Duration : 59mn 7s
Overall bit rate mode : Variable
Overall bit rate : 4 799 Kbps

Video
ID : 1
Format : AVC
Format/Info : Advanced Video Codec
Format profile : [email protected]
Format settings, CABAC : Yes
Format settings, ReFrames : 4 frames
Codec ID : avc1
Codec ID/Info : Advanced Video Coding
Duration : 59mn 7s
Bit rate : 4 664 Kbps
Width : 1 280 pixels
Height : 720 pixels
Display aspect ratio : 16:9
Frame rate mode : Constant
Frame rate : 50.000 fps
Color space : YUV
Chroma subsampling : 4:2:0
Bit depth : 8 bits
Scan type : Progressive
Bits/(Pixel*Frame) : 0.101
Stream size : 1.93 GiB (97%)
Encoded date : UTC 1904-01-01 00:00:00
Tagged date : UTC 1904-01-01 00:00:00
Color range : Limited
Color primaries : BT.709
Transfer characteristics : BT.709
Matrix coefficients : BT.709

Audio
ID : 2
Format : AAC
Format/Info : Advanced Audio Codec
Format profile : LC
Codec ID : 40
Duration : 59mn 7s
Bit rate mode : Variable
Bit rate : 128 Kbps
Maximum bit rate : 131 Kbps
Channel(s) : 2 channels
Channel positions : Front: L R
Sampling rate : 48.0 KHz
Frame rate : 46.875 fps (1024 spf)
Compression mode : Lossy
Stream size : 54.1 MiB (3%)
Language : English

Facebook Twitter Digg Reddit LinkedIn StumbleUpon Email
Show Demonoid some love with BitCoin: 1DNoidyJgB159bLJT5hDnCkZ4uQrhkfBVk How to get BitCoins?
Peers: 0 seeders, 2 leechers, 0 total - Updated: 2 months ago [ Update now ]
Size: 1.98 GB 

Sponsored links
Related torrents
Torrents you may also like:
Download this torrent
Extra information
Tracker: udp://tracker.ds.is:6969/announce
Torrent hash: 4C6CC42C B0FBB22A 09E97907 DEEA69D0 38397605
Files described inside the torrent: 8 [ Click here to show the full list ]
Comments
No comments posted yet

Disclaimer: None of the files shown here are actually hosted or transmitted by this server. The links are provided solely by this site's users. The site moderation is also a service provided by the site's users. The administrator of this site (demonoid.is) cannot be held responsible for what its users post, or any other actions of its users. You may not use this site to distribute or download any material when you do not have the legal rights to do so. It is your own responsibility to adhere to these terms.

By using this site you indicate your agreement to our terms and conditions
   
Link to us | Contact us | API | Commemoration | Twitter: @DemonoidBT | Feeds/RSS | DMCA
This site and the Demonoid logo are Copyright © Demonoid. All rights reserved.

Show Demonoid some love with 1DNoidyJgB159bLJT5hDnCkZ4uQrhkfBVk