User log in
User registration
Registrations are open
Click here to register
Email: forgotten email?
Password: lost pass?
  Resend activation email
Get VPN Now for FREE! Get VPN Now for FREE! Protect your privacy! Use a VPN When Downloading Torrents
Your IP Address is . Location is .
Your Internet Provider is tracking your torrent activity! Hide your IP ADDRESS with a VPN!
We strongly recommend using Trust.Zone VPN to anonymize your torrenting. It's FREE!
Also, while you are using Tl7610e1rusj5b2fcft.j935637Zone VPN you get No Ads for Demonoid members Get j5b2fcfVPN Nj5b2fcfow for FREkf0f7a6Efeb4e88!
Details for Rashmi Rocket (2021) Hindi UNTOUCHED 720p Zee5 WEB-DL AAC2.0 x264 ESub 1GB [Themoviesboss]
Created by Ratio: 2.73Suryadipta 1 month ago
Movies : Drama : HD 720p : Hindi
Visit Our Site
  themoviesboss.com



Encoded by                               : Harley Quinn



Movie name :

Rashmi Rocket (2021) Hindi UNTOUCHED 720p Zee5 WEB-DL AAC2.0 x264 ESub 1GB [Themoviesboss]

General
Format : Matroska
Format version : Version 4
File size : 1 001 MiB
Duration : 2 h 9 min
Overall bit rate mode : Variable
Overall bit rate : 1 082 kb/s
Encoded date : UTC 2021-10-14 20:43:00
Writing application : mkvmerge v60.0.0 ('Are We Copies?') 64-bit
Writing library : libebml v1.4.2 + libmatroska v1.6.4

Video
ID : 1
Format : AVC
Format/Info : Advanced Video Codec
Format profile : [email protected]
Format settings : CABAC / 4 Ref Frames
Format settings, CABAC : Yes
Format settings, Reference frames : 4 frames
Codec ID : V_MPEG4/ISO/AVC
Duration : 2 h 9 min
Bit rate mode : Variable
Bit rate : 1 016 kb/s
Maximum bit rate : 2 700 kb/s
Width : 1 280 pixels
Height : 546 pixels
Display aspect ratio : 2.35:1
Frame rate mode : Constant
Frame rate : 25.000 FPS
Standard : PAL
Color space : YUV
Chroma subsampling : 4:2:0
Bit depth : 8 bits
Scan type : Progressive
Bits/(Pixel*Frame) : 0.058
Stream size : 939 MiB (94%)
Language : Hindi
Default : Yes
Forced : No
Color range : Limited
Color primaries : BT.709
Transfer characteristics : BT.709
Matrix coefficients : BT.709

Audio
ID : 2
Format : AAC LC
Format/Info : Advanced Audio Codec Low Complexity
Codec ID : A_AAC-2
Duration : 2 h 9 min
Bit rate : 64.0 kb/s
Channel(s) : 2 channels
Channel layout : L R
Sampling rate : 48.0 kHz
Frame rate : 46.875 FPS (1024 SPF)
Compression mode : Lossy
Stream size : 59.2 MiB (6%)
Language : Hindi
Default : Yes
Forced : No

Text
ID : 3
Format : UTF-8
Codec ID : S_TEXT/UTF8
Codec ID/Info : UTF-8 Plain Text
Duration : 2 h 2 min
Bit rate : 67 b/s
Count of elements : 1840
Stream size : 61.1 KiB (0%)
Language : English
Default : Yes
Forced : No

                                       










Facebook Twitter Digg Reddit LinkedIn StumbleUpon Email
Show Demonoid some love with BitCoin: 1DNoidyJgB159bLJT5hDnCkZ4uQrhkfBVk How to get BitCoins?
Peers: 419 seeders, 51 leechers, 36,364 total - Updated: 23 days ago [ Update now ]
Size: 1,000.86 MB  

Sponsored links
Related torrents
Torrents you may also like:
Download this torrent
Extra information
Tracker: udp://tracker.nyaa.uk:6969/announce
Torrent hash: 223A8682 B02B7D63 679CAC9D 99FB9A2E 0BFF7403
Files described inside the torrent: 1 [ Click here to show the full list ]
Comments
No comments posted yet

Disclaimer: None of the files shown here are actually hosted or transmitted by this server. The links are provided solely by this site's users. The site moderation is also a service provided by the site's users. The administrator of this site (demonoid.is) cannot be held responsible for what its users post, or any other actions of its users. You may not use this site to distribute or download any material when you do not have the legal rights to do so. It is your own responsibility to adhere to these terms.

By using this site you indicate your agreement to our terms and conditions
   
Link to us | Contact us | API | Commemoration | Feeds/RSS | DMCA
This site and the Demonoid logo are Copyright © Demonoid. All rights reserved.

Show Demonoid some love with 1DNoidyJgB159bLJT5hDnCkZ4uQrhkfBVk