User log in
User registration
Registrations are open
Click here to register
Email: forgotten email?
Password: lost pass?
  Resend activation email
Get VPN Now for FREE! Get VPN Now for FREE! Get VPN Now for FREE! Protect your privacy! Use a VPN When Downloading Torrents
Your IP Address is . Location is .
Your Internet Provider is tracking your torrent activity! Hide your IP ADDRESS with a VPN!
We strongly recommend using Trust.Zone VPN to anonymize your torrenting. It's FREE!
Autumn deal! 75% off! Also, while you are using Ta74c960russ6959a7t.l3c29bcZone VPN you get No Ads for Demonoid members Get s6959a7VPN Ns6959a7ow for FREcafee14Ez66eea1!
Details for Faithless - Live at Alexander Palace (2005) HEVC 10bit.720p.x265.DTS 24-48 6ch (AI-DVDRip) [djdezzie]
Created by Ratio: 1.00djdezzie 25 days ago
Music Videos : Other : HEVC / x265


Artist: Faithless
Title:  Live at Alexander Palace 720p
Year Of Release: 2005
Label: Sony, BMG, Cheeky Records
Genre: House
Audio: DTS 6ch 24bit -48kHz 768 kb/s
Video: 2 816kb/, x265,mkv
Colour: 10bit
Total Time: 01:35:15
Total Size: 2.42 GB

Contains heavy strobing throughout.

















General
Complete name                            : E:\Faithless - Live at Alexander Palace (2005) HEVC 10bit.720p.x265.DTS 24-48 6ch [AI DVDRip]\Faithless - Live at Alexander Palace (2005) HEVC 10bit.720p.x265.DTS 24-48 6ch [AI DVDRip].mkv
Format                                   : Matroska
Format version                           : Version 2
File size                                : 2.38 GiB
Duration                                 : 1 h 35 min
Overall bit rate                         : 3 573 kb/s
Movie name                               : Faithless - Live at Alexander Palace (2005) DVDRip 720p (AI)
Encoded date                             : UTC 2021-10-02 18:14:09
Writing application                      : DVDFab 12.0.4.9
Writing library                          : libebml v1.4.2 + libmatroska v1.6.3

Video
ID                                       : 1
Format                                   : HEVC
Format/Info                              : High Efficiency Video Coding
Format profile                           : Main [email protected]@Main
Codec ID                                 : V_MPEGH/ISO/HEVC
Duration                                 : 1 h 35 min
Bit rate                                 : 2 816 kb/s
Width                                    : 1 280 pixels
Height                                   : 720 pixels
Display aspect ratio                     : 16:9
Frame rate mode                          : Constant
Frame rate                               : 25.000 FPS
Color space                              : YUV
Chroma subsampling                       : 4:2:0
Bit depth                                : 10 bits
Bits/(Pixel*Frame)                       : 0.122
Stream size                              : 1.87 GiB (79%)
Default                                  : Yes
Forced                                   : No
Color range                              : Limited
Color primaries                          : BT.709
Transfer characteristics                 : BT.709
Matrix coefficients                      : BT.709

Audio
ID                                       : 2
Format                                   : DTS
Format/Info                              : Digital Theater Systems
Codec ID                                 : A_DTS
Duration                                 : 1 h 35 min
Bit rate mode                            : Constant
Bit rate                                 : 754 kb/s
Channel(s)                               : 6 channels
Channel layout                           : C L R Ls Rs LFE
Sampling rate                            : 48.0 kHz
Frame rate                               : 93.750 FPS (512 SPF)
Bit depth                                : 24 bits
Compression mode                         : Lossy
Stream size                              : 514 MiB (21%)
Language                                 : English
Default                                  : Yes
Forced                                   : No


Facebook Twitter Digg Reddit LinkedIn StumbleUpon Email
Show Demonoid some love with BitCoin: 1DNoidyJgB159bLJT5hDnCkZ4uQrhkfBVk How to get BitCoins?
Peers: 3 seeders, 2 leechers, 81 total - Updated: 14 days ago [ Update now ]
Size: 2.42 GB  

Sponsored links
Related torrents
Torrents you may also like:
Download this torrent
Extra information
Tracker: udp://tracker.tiny-vps.com:6969/announce
Torrent hash: DD57FC89 2E98AFC1 A3B2D0D3 A4AA5C4E A891647D
Files described inside the torrent: 17 [ Click here to show the full list ]
Comments
No comments posted yet

Disclaimer: None of the files shown here are actually hosted or transmitted by this server. The links are provided solely by this site's users. The site moderation is also a service provided by the site's users. The administrator of this site (demonoid.is) cannot be held responsible for what its users post, or any other actions of its users. You may not use this site to distribute or download any material when you do not have the legal rights to do so. It is your own responsibility to adhere to these terms.

By using this site you indicate your agreement to our terms and conditions
   
Link to us | Contact us | API | Commemoration | Feeds/RSS | DMCA
This site and the Demonoid logo are Copyright © Demonoid. All rights reserved.

Show Demonoid some love with 1DNoidyJgB159bLJT5hDnCkZ4uQrhkfBVk