User log in
User registration
Registrations are closed. If you have an invitation code, click here.
Email: forgotten email?
Password: lost pass?
  Resend activation email
Get VPN Now for FREE! Get VPN Now for FREE! Protect your privacy! Use a VPN When Downloading Torrents
Your IP Address is . Location is .
Your Internet Provider is tracking your torrent activity! Hide your IP ADDRESS with a VPN!
We strongly recommend using Trust Zone VPN to anonymize your torrenting. It's FREE!
Also, while you are using Tf7bc2b1rusfffa5bft v9e7fd5Zone VPN you get No Ads on Demonoid site Get fffa5bfVPN Nfffa5bfow!
Details for BBC Proms 2021 - Moses Sumney Meets Jules Buckley and the BBC Symphony Orchestra (1280x720p HD, 50fps, soft Eng subs)
Created by Ratio: 1.00ElsonRoa 10 months ago 0   0
TV : Concerts : HD 720p : English
BBC Proms 2021 - Moses Sumney Meets Jules Buckley and the BBC Symphony Orchestra (1280x720p HD, 50fps, soft Eng subs)

Genre-defying Ghanaian-American musician Moses Sumney makes his Proms debut with conductor Jules Buckley and the BBC Symphony Orchestra as they perform new orchestral arrangements of tracks from his first two albums. / / Moses Sumney describes his music as an amalgamation of soul, jazz, folk and experimental indie rock. Presented by Clara Amfo from the Royal Albert Hall, this Prom promises to be a unique trip through the multi-faceted music of this indefinable artist.

First broadcast: 3 September 2012
Duration: 110 minutes

Torrent dead? Request reseed at torrentgalaxy.org - or ask at elsonroa at tutanota.com
BBC-Proms-2021-Moses-Sumney-Meets-Jules-...hestra.jpg [ibb.co]
Media info:-
General
Format : MPEG-4
Format profile : Base Media
Codec ID : isom (isom/iso2/avc1/mp41)
File size : 3.91 GiB
Duration : 1h 47mn
Overall bit rate : 5 188 Kbps

Video
ID : 1
Format : AVC
Format/Info : Advanced Video Codec
Format profile : [email protected]
Format settings, CABAC : Yes
Format settings, ReFrames : 4 frames
Codec ID : avc1
Codec ID/Info : Advanced Video Coding
Duration : 1h 47mn
Bit rate : 5 053 Kbps
Width : 1 280 pixels
Height : 720 pixels
Display aspect ratio : 16:9
Frame rate mode : Constant
Frame rate : 50.000 fps
Color space : YUV
Chroma subsampling : 4:2:0
Bit depth : 8 bits
Scan type : Progressive
Bits/(Pixel*Frame) : 0.110
Stream size : 3.81 GiB (97%)
Encoded date : UTC 1904-01-01 00:00:00
Tagged date : UTC 1904-01-01 00:00:00
Color range : Limited
Color primaries : BT.709
Transfer characteristics : BT.709
Matrix coefficients : BT.709

Audio
ID : 2
Format : AAC
Format/Info : Advanced Audio Codec
Format profile : LC
Codec ID : 40
Duration : 1h 47mn
Bit rate mode : Constant
Bit rate : 128 Kbps
Channel(s) : 2 channels
Channel positions : Front: L R
Sampling rate : 48.0 KHz
Frame rate : 46.875 fps (1024 spf)
Compression mode : Lossy
Stream size : 98.8 MiB (2%)
Language : English

Facebook Twitter Digg Reddit LinkedIn StumbleUpon Email
Show Demonoid some love with BitCoin: 1DNoidyJgB159bLJT5hDnCkZ4uQrhkfBVk How to get BitCoins?
Peers: 1 seeders, 0 leechers, 48 total - Updated: 728 hours 37 minutes 47 seconds ago
Size: 3.91 GB  

Sponsored links
Related torrents
Torrents you may also like:
Download this torrent
Extra information
Tracker: udp://tracker.tiny-vps.com:6969/announce
Torrent hash: 2C30FEDE E5DE9B6C 475AAF5F D2E3FC88 FE7D49C2
Files described inside the torrent: 7 [ Click here to show the full list ]
Comments
No comments posted yet

Disclaimer: None of the files shown here are actually hosted or transmitted by this server. The links are provided solely by this site's users. The site moderation is also a service provided by the site's users. The administrator of this site (demonoid.is) cannot be held responsible for what its users post, or any other actions of its users. You may not use this site to distribute or download any material when you do not have the legal rights to do so. It is your own responsibility to adhere to these terms.

By using this site you indicate your agreement to our terms and conditions
   
Link to us | Contact us | API | Feeds/RSS | DMCA
This site and the Demonoid logo are Copyright © Demonoid. All rights reserved.

Show Demonoid some love with 1DNoidyJgB159bLJT5hDnCkZ4uQrhkfBVk