User log in
User registration
Registrations are open
Click here to register
Email: forgotten email?
Password: lost pass?
  Resend activation email
Get VPN Now for FREE! Get VPN Now for FREE! Get VPN Now for FREE! Get VPN Now for FREE! Get VPN Now for FREE! Get VPN Now for FREE! Protect your privacy! Use a VPN When Downloading Torrents
Your IP Address is . Location is .
Your Internet Provider is tracking your torrent activity! Hide your IP ADDRESS with a VPN!
We strongly recommend using Trust Zone VPN to anonymize your torrenting. It's FREE!
Also, while you are using Tk06c73frusv3e614at xd0c5caZone VPN you get No Ads on Demonoid site Get v3e614aVPN Nv3e614aow!
Details for BBC Proms 2020 - Proms at BBC Hoddinott Hall, Cardiff (1280x720p HD, 50fps, soft Eng subs)
Created by Ratio: 1.00ElsonRoa 10 months ago 0   0
TV : Concerts : HD 720p : English
BBC Proms 2020  - Proms at BBC Hoddinott Hall, Cardiff (1280x720p HD, 50fps, soft Eng subs)

[Note: As well as its 2021 Proms coverage, coverage from the 2020 season that I have not previously uploaded is currently available]

Ryan Bancroft joins BBC NOW as principal conductor at BBC Hoddinott Hall in Cardiff Bay for his first official engagement, his Proms debut and the first Prom from Wales! Martinu’s quirky Jazz Suite complements John Adams’s Chamber Symphony, written in 1992. After the world premiere of a new BBC commission by British composer Gavin Higgins, there are two evocative American classics by Barber and Copland. Acclaimed soprano Natalya Romaniw from Swansea, who represented Wales in Cardiff Singer of the World, joins the orchestra for this unforgettable Prom.

First broadcast:  12 September 2020
Duration:  100 minutes

Torrent dead? Request reseed at torrentgalaxy.org - or ask at elsonroa at tutanota.com

Media info:
General
Format : MPEG-4
Format profile : Base Media
Codec ID : isom (isom/iso2/avc1/mp41)
File size : 3.59 GiB
Duration : 1h 38mn
Overall bit rate mode : Variable
Overall bit rate : 5 201 Kbps

Video
ID : 1
Format : AVC
Format/Info : Advanced Video Codec
Format profile : [email protected]
Format settings, CABAC : Yes
Format settings, ReFrames : 4 frames
Codec ID : avc1
Codec ID/Info : Advanced Video Coding
Duration : 1h 38mn
Bit rate : 5 065 Kbps
Width : 1 280 pixels
Height : 720 pixels
Display aspect ratio : 16:9
Frame rate mode : Constant
Frame rate : 50.000 fps
Color space : YUV
Chroma subsampling : 4:2:0
Bit depth : 8 bits
Scan type : Progressive
Bits/(Pixel*Frame) : 0.110
Stream size : 3.50 GiB (97%)
Encoded date : UTC 1904-01-01 00:00:00
Tagged date : UTC 1904-01-01 00:00:00
Color range : Limited
Color primaries : BT.709
Transfer characteristics : BT.709
Matrix coefficients : BT.709

Audio
ID : 2
Format : AAC
Format/Info : Advanced Audio Codec
Format profile : LC
Codec ID : 40
Duration : 1h 38mn
Bit rate mode : Variable
Bit rate : 128 Kbps
Maximum bit rate : 136 Kbps
Channel(s) : 2 channels
Channel positions : Front: L R
Sampling rate : 48.0 KHz
Frame rate : 46.875 fps (1024 spf)
Compression mode : Lossy
Stream size : 90.6 MiB (2%)
Language : English

Facebook Twitter Digg Reddit LinkedIn StumbleUpon Email
Show Demonoid some love with BitCoin: 1DNoidyJgB159bLJT5hDnCkZ4uQrhkfBVk How to get BitCoins?
Peers: 0 seeders, 0 leechers, 28 total - Updated: 2233 hours 24 minutes 41 seconds ago
Size: 3.60 GB  

Sponsored links
Related torrents
Torrents you may also like:
Download this torrent
Extra information
Tracker: udp://tracker.tiny-vps.com:6969/announce
Torrent hash: B79B1718 1196EC39 ED0040D2 036A4F2A 24B607D1
Files described inside the torrent: 7 [ Click here to show the full list ]
Comments
No comments posted yet

Disclaimer: None of the files shown here are actually hosted or transmitted by this server. The links are provided solely by this site's users. The site moderation is also a service provided by the site's users. The administrator of this site (demonoid.is) cannot be held responsible for what its users post, or any other actions of its users. You may not use this site to distribute or download any material when you do not have the legal rights to do so. It is your own responsibility to adhere to these terms.

By using this site you indicate your agreement to our terms and conditions
   
Link to us | Contact us | API | Feeds/RSS | DMCA
This site and the Demonoid logo are Copyright © Demonoid. All rights reserved.

Show Demonoid some love with 1DNoidyJgB159bLJT5hDnCkZ4uQrhkfBVk