User log in
User registration
Registrations are open
Click here to register
Email: forgotten email?
Password: lost pass?
  Resend activation email
Get VPN Now for FREE! Get VPN Now for FREE! Get VPN Now for FREE! Get VPN Now for FREE! Get VPN Now for FREE! Get VPN Now for FREE! Get VPN Now for FREE! Get VPN Now for FREE! Get VPN Now for FREE! Get VPN Now for FREE! Get VPN Now for FREE! Get VPN Now for FREE! Get VPN Now for FREE! Get VPN Now for FREE! Get VPN Now for FREE! Protect your privacy! Use a VPN When Downloading Torrents
Your IP Address is . Location is .
Your Internet Provider is tracking your torrent activity! Hide your IP ADDRESS with a VPN!
We strongly recommend using Trust.Zone VPN to anonymize your torrenting. It's FREE!
Also, while you are using Trust.Zone VPN you get No Ads for Demonoid members Get VPN Now for FREE!
Details for Led Zeppelin - This Is Led Zeppelin (2021) (PBTHAL Vinyl 24-96) [FLAC] vtwin88cube
Created by Ratio: 1.00vtwin88cube 2 months ago
Music : Rock : Lossless
Led Zeppelin
This Is Led Zeppelin (2021)
FLAC LOSSLESS 24bit-96kHz
PBTHAL VINYL TRACKS


Choice cuts from 1969-1975.

Led Zeppelin I
Led Zeppelin II
Led Zeppelin III
Led Zeppelin IV
Houses Of The Holy
Physical Graffiti


allmusic.com...

What the Beatles were to the '60s, Led Zeppelin were to the '70s: a band so successful and innovative they wound up creating the prism through which their entire epoch was seen. Zeppelin ushered in the era of album rock -- they refused to release singles off their albums, even when they were garnering massive radio play -- and of arena rock, playing ever-larger stadiums as their ticket sales skyrocketed. Other bands played on a similar field but Led Zeppelin carried a unique mystique cultivated by cryptic album art, distance from the press, and, of course, their music. Drawing upon postwar electric blues, early rock & roll, and psychedelia, Zeppelin created a titanic roar in their earliest days but even then they weren't merely heavy. Underneath the wattage, there was a strong undercurrent of folk-rock and the quartet would soon thread in world music, funk, country, and synthesizers, creating an adventurous body of work that had a long, lasting influence on hard rock, heavy metal, and alternative rock.


foobar2000 1.4.3 / Dynamic Range Meter 1.1.1
log date: 2021-07-21 22:48:38

--------------------------------------------------------------------------------
Analyzed: Led Zeppelin / This Is Led Zeppelin
--------------------------------------------------------------------------------

DR         Peak         RMS     Duration Track
--------------------------------------------------------------------------------
DR11      -1.03 dB   -14.16 dB      2:46 01-Good Times, Bad Times
DR11      -2.31 dB   -16.18 dB      6:39 02-Babe, I'm Gonna Leave You
DR11      -1.36 dB   -14.35 dB      6:27 03-Dazed And Confused
DR10      -1.34 dB   -14.00 dB      2:30 04-Communication Breakdown
DR13      -0.70 dB   -17.67 dB      5:36 05-Whole Lotta Love
DR13      -0.70 dB   -17.43 dB      4:49 06-What Is And What Should Never Be
DR13      -2.09 dB   -19.85 dB      4:49 07-Thank You
DR13      -1.68 dB   -18.92 dB      4:36 08-Ramble On
DR11      -4.35 dB   -17.25 dB      2:25 09-Immigrant Song
DR13      -0.70 dB   -17.07 dB      4:58 10-Black Dog
DR11      -3.08 dB   -15.47 dB      3:43 11-Rock And Roll
DR12      -2.16 dB   -20.05 dB      8:04 12-Stairway To Heaven
DR11      -2.34 dB   -15.89 dB      7:11 13-When The Levee Breaks
DR12      -0.70 dB   -14.81 dB      5:30 14-The Song Remains The Same
DR13      -0.70 dB   -17.85 dB      4:52 15-Over The Hills And Far Away
DR14      -0.75 dB   -16.97 dB      4:05 16-Houses Of The Holy
DR14      -0.87 dB   -16.75 dB      5:39 17-Trampled Under Foot
DR14      -0.74 dB   -18.50 dB      8:36 18-Kashmir

Number of tracks:  18
Official DR value: DR12

Samplerate:        96000 Hz
Channels:          2
Bits per sample:   24
Bitrate:           2862 kbps
Codec:             FLAC




Not my rip. Any questions about the
equipment used can be found in the
lineage text.


Support the artists!

Sharing since 2010
Thanks for Seeding!
Cheers;)
88
Facebook Twitter Digg Reddit LinkedIn StumbleUpon Email
Show Demonoid some love with BitCoin: 1DNoidyJgB159bLJT5hDnCkZ4uQrhkfBVk How to get BitCoins?
Peers: 36 seeders, 2 leechers, 1,790 total - Updated: 2 months ago [ Update now ]
Size: 1.92 GB  

Sponsored links
Related torrents
Torrents you may also like:
Download this torrent
Extra information
Tracker: udp://tracker.openbittorrent.com:80/announce
Torrent hash: AEBCF71D DD7AB44B CA1AA3C7 75861638 A868F898
Files described inside the torrent: 22 [ Click here to show the full list
Comments
<< Prev        Next >>
| 1 - 1 | 1 items total
Posted by Ratio: 1.00JBH69Flyer 2 months ago [ Complain ] [ Send PM ]
Great LZ Collection! Thanks very much!
| 1 - 1 | 1 items total
<< Prev        Next >>

Disclaimer: None of the files shown here are actually hosted or transmitted by this server. The links are provided solely by this site's users. The site moderation is also a service provided by the site's users. The administrator of this site (demonoid.is) cannot be held responsible for what its users post, or any other actions of its users. You may not use this site to distribute or download any material when you do not have the legal rights to do so. It is your own responsibility to adhere to these terms.

By using this site you indicate your agreement to our terms and conditions
   
Link to us | Contact us | API | Commemoration | Feeds/RSS | DMCA
This site and the Demonoid logo are Copyright © Demonoid. All rights reserved.

Show Demonoid some love with 1DNoidyJgB159bLJT5hDnCkZ4uQrhkfBVk