User log in
User registration
Registrations are open
Click here to register
Email: forgotten email?
Password: lost pass?
  Resend activation email
Get VPN Now for FREE! Get VPN Now for FREE! Get VPN Now for FREE! Get VPN Now for FREE! Get VPN Now for FREE! Get VPN Now for FREE! Get VPN Now for FREE! Get VPN Now for FREE! Get VPN Now for FREE! Get VPN Now for FREE! Protect your privacy! Use a VPN When Downloading Torrents
Your IP Address is . Location is .
Your Internet Provider is tracking your torrent activity! Hide your IP ADDRESS with a VPN!
We strongly recommend using Trust.Zone VPN to anonymize your torrenting. It's FREE!
Also, while you are using Trust.Zone VPN you get No Ads for Demonoid members Get VPN Now for FREE!
Details for The Doors - This Is The Doors (2021) (PBTHAL Vinyl 24Bit-96kHz) [FLAC] vtwin88cube
Created by Ratio: 1.00vtwin88cube 2 months ago
Music : Rock : Lossless
The Doors
This Is The Doors (2021)
FLAC LOSSLESS 24bit-96kHz
PBTHAL VINYL TRACKS


allmusic.com...

The Doors mark the moment when the American rock underground of the 1960s came crashing into the mainstream. The group's massive influence on the course of rock music may been overshadowed by decades of lionization of their late lead singer Jim Morrison, whose early death wound up being a pivotal part of their legacy. He seemed to loom larger in his afterlife than he did when he roamed the earth.


foobar2000 1.4.3 / Dynamic Range Meter 1.1.1
log date: 2021-07-18 23:43:33

--------------------------------------------------------------------------------
Analyzed: The Doors / This Is The Doors
--------------------------------------------------------------------------------

DR         Peak         RMS     Duration Track
--------------------------------------------------------------------------------
DR11      -1.28 dB   -14.68 dB      2:29 01-Break On Through (To The Other Side)
DR11      -2.25 dB   -16.14 dB      2:35 02-The Crystal Ship
DR10      -2.42 dB   -14.82 dB      7:11 03-Light My Fire
DR11      -2.54 dB   -18.38 dB     11:50 04-The End
DR11      -2.28 dB   -16.63 dB      2:12 05-People Are Strange
DR12      -0.70 dB   -16.37 dB     11:00 06-When The Music's Over
DR12      -1.45 dB   -16.21 dB      3:20 07-Love Me Two Times
DR12      -1.53 dB   -16.95 dB      2:15 08-Hello, I Love You
DR11      -2.01 dB   -17.76 dB      3:22 09-The Unknown Soldier
DR13      -2.52 dB   -18.20 dB      4:29 10-Five To One
DR12      -2.22 dB   -17.49 dB      3:14 11-Touch Me
DR14      -0.70 dB   -16.52 dB      4:49 12-Shaman's Blues
DR16      -0.88 dB   -18.94 dB      2:36 13-Wild Child
DR12      -2.37 dB   -16.45 dB      4:06 14-Roadhouse Blues
DR13      -0.84 dB   -16.23 dB      4:00 15-Waiting For The Sun
DR12      -2.70 dB   -16.74 dB      3:09 16-Ship Of Fools
DR13      -1.90 dB   -17.21 dB      3:21 17-Love Her Madly
DR13      -2.21 dB   -17.95 dB      7:59 18-L.A. Woman
DR14      -1.87 dB   -19.82 dB      7:16 19-Riders On The Storm

Number of tracks:  19
Official DR value: DR12

Samplerate:        96000 Hz
Channels:          2
Bits per sample:   24
Bitrate:           2746 kbps
Codec:             FLAC




Not my rip. Any questions about the
equipment used can be found in the
lineage text.


Support the artists...
buy it if you like it!

Sharing since 2010
Thanks for Seeding!
Cheers;)
88
Facebook Twitter Digg Reddit LinkedIn StumbleUpon Email
Show Demonoid some love with BitCoin: 1DNoidyJgB159bLJT5hDnCkZ4uQrhkfBVk How to get BitCoins?
Peers: 30 seeders, 4 leechers, 1,654 total - Updated: 2 months ago [ Update now ]
Size: 1.86 GB  

Sponsored links
Related torrents
Torrents you may also like:
Download this torrent
Extra information
Tracker: udp://tracker.openbittorrent.com:80/announce
Torrent hash: CC832C4A 5670902E 117A5940 0CB5536F 4C26A5D2
Files described inside the torrent: 23 [ Click here to show the full list
Comments
<< Prev        Next >>
| 1 - 6 | 6 items total
Posted by Ratio: 1.00Fensa 2 months ago [ Complain ] [ Send PM ]
Muchas gracias
Posted by Ratio: 1.00alehop69 2 months ago [ Complain ] [ Send PM ]
Thanks..!!!!
Posted by Ratio: 1.00carlosv 2 months ago [ Complain ] [ Send PM ]
welcome back
Posted by Ratio: 1.00sdmachines 2 months ago [ Complain ] [ Send PM ]
EFFIN SWEET
Posted by Ratio: 1.00gierry 2 months ago [ Complain ] [ Send PM ]
Thank you sir!
Posted by Ratio: 1.00vtwin88cube 2 months ago [ Complain ] [ Send PM ]
You're welcome !!
| 1 - 6 | 6 items total
<< Prev        Next >>

Disclaimer: None of the files shown here are actually hosted or transmitted by this server. The links are provided solely by this site's users. The site moderation is also a service provided by the site's users. The administrator of this site (demonoid.is) cannot be held responsible for what its users post, or any other actions of its users. You may not use this site to distribute or download any material when you do not have the legal rights to do so. It is your own responsibility to adhere to these terms.

By using this site you indicate your agreement to our terms and conditions
   
Link to us | Contact us | API | Commemoration | Feeds/RSS | DMCA
This site and the Demonoid logo are Copyright © Demonoid. All rights reserved.

Show Demonoid some love with 1DNoidyJgB159bLJT5hDnCkZ4uQrhkfBVk