User log in
User registration
Registrations are open
Click here to register
Email: forgotten email?
Password: lost pass?
  Resend activation email
Get VPN Now for FREE! Get VPN Now for FREE! Get VPN Now for FREE! Get VPN Now for FREE! Get VPN Now for FREE! Get VPN Now for FREE! Protect your privacy! Use a VPN When Downloading Torrents
Your IP Address is . Location is .
Your Internet Provider is tracking your torrent activity! Hide your IP ADDRESS with a VPN!
We strongly recommend using Trust.Zone VPN to anonymize your torrenting!
Also, while you are using Trsedcb02ust.p8a7641Zone VPN you get No Ads on Demonoid site Get p8a7641VPN Np8a7641ow!
Details for Beauty and the Beast - La bella e la bestia (1991) Special Edition 1080p H264 Ac3 5.1 Ita Eng Sub Ita+Ita Cantato Eng - MIRCrew
Created by Ratio: 29.80MIRCrew 2 years ago
Movies : Animation : HD 1080p / 1080i : English
Beauty and the Beast - La bella e la bestia (1991) Special Edition 1080p H264 Ac3 5.1 Ita Eng Sub Ita+Ita Cantato Eng - MIRCrew

new-banner-mircrew.png


NO FOUND ONLY ORIGINAL RELEASE

My release is always in double track audio italian and Original audio
for select it use VLC or dvd player home
not use wmp

1200px-Beauty-And-The-Beast-Official-Logo.png [postimages.org]

SPECIAL EDITION 91 M.

PRESENTI I SOTTOTITOLI ITALIANI PER IL CANTATO

Quality MIRCrew in HD 1080p da 2,37 gb


w.png [postimages.org]

youtube_logo.png [www.youtube.com]

imdb_new.png [www.imdb.com]

fGu1rKv.png

Titolo originale Beauty and the Beast
Paese di produzione Stati Uniti d'America
Anno 1991
Durata 88 min (edizione originale)
91 min (edizione speciale)/
Rapporto 1,78.1
Genere animazione,

W7kBqiE.png

Doppiatori originali

Paige O'Hara: Belle
Robby Benson: Bestia
Jerry Orbach: Lumière
David Ogden Stiers: Tockins, voce narrante
Angela Lansbury: Mrs. Bric
Bradley Pierce: Chicco
Richard White: Gaston
Rick Jones: Capitano delle Guardie
Rex Everhart: Maurice
Jesse Corti: Le Tont
Hal Smith: Philippe
Jo Anne Worley: Guardaroba
Alvin Epstein: Libraio
Tony Jay: Monsieur D'Arque
Alec Murphy: Fornaio
Kimmy Robertson: Spolverina

Doppiatori italiani

Laura Boccanera: Belle (dialoghi)
Marjorie Biondo: Belle (canto)
Massimo Corvo: Bestia
Vittorio Amandola: Lumière
Gianni Vagliani: Tockins
Isa Di Marzio: Mrs. Bric
Davide Perino: Chicco
Roberto Pedicini: Gaston (dialoghi)
Carlo Lepore: Gaston (canto)
Paolo Lombardi: Maurice
Elio Pandolfi: Le Tont
Didi Perego: Guardaroba
Gianfranco Bellini: Libraio
Mauro Bosco: Monsieur D'Arque
Pietro Barreca: Fornaio
Silvia Pepitoni: Spolverina
Nando Gazzolo: Voce narrante

bFK3ggF.png

Molto tempo fa, un giovane principe di bell'aspetto, ma viziato e crudele, viveva in uno splendido castello. Una sera d’inverno, un’anziana mendicante bussò alla sua porta e gli chiese ospitalità in cambio di una rosa; il principe, disgustato, la scacciò in malo modo.

48xHWWH.png

A selfish prince is cursed to become a monster for the rest of his life, unless he learns to fall in love with a beautiful young woman he keeps prisoner.

K8bfNTy.png

vlcsnap-2021-06-08-14h25m11s424.png [postimg.cc]

vlcsnap-2021-06-08-14h25m27s047.png [postimg.cc]

vlcsnap-2021-06-08-14h25m34s661.png [postimg.cc]

vlcsnap-2021-06-08-14h25m43s378.png [postimg.cc]

vlcsnap-2021-06-08-14h25m48s439.png [postimg.cc]



aVrMohH.png

[spoiler]General

Complete name : La bella e la bestia - Beauty and the Beast (1991) Special Edition 1080p H264 Ac3 Ita Eng Sub Ita Eng - MIRCrew.mkv
Format : Matroska
Format version : Version 2
File size : 2.37 GiB
Duration : 1h 31mn
Overall bit rate : 3 692 Kbps
Movie name : MIRCrew
Writing application : Lavf54.63.100
Writing library : Lavf54.63.100
COMMENT : MIRCrew

Video
ID : 1
Format : AVC
Format/Info : Advanced Video Codec
Format profile : [email protected]
Format settings, CABAC : Yes
Format settings, ReFrames : 2 frames
Codec ID : V_MPEG4/ISO/AVC
Duration : 1h 31mn
Bit rate : 2 600 Kbps
Width : 1 920 pixels
Height : 1 072 pixels
Display aspect ratio : 16:9
Frame rate mode : Variable
Frame rate : 23.976 fps
Color space : YUV
Chroma subsampling : 4:2:0
Bit depth : 8 bits
Scan type : Progressive
Bits/(Pixel*Frame) : 0.053
Stream size : 1.74 GiB (74%)
Writing library : x264 core 130 r2273
Encoding settings : cabac=1 / ref=2 / deblock=1:-1:-1
Language : Italian
Default : Yes
Forced : No
DURATION : 01:31:44.916000000

Audio #1
ID : 2
Format : AC-3
Format/Info : Audio Coding 3
Mode extension : CM (complete main)
Codec ID : A_AC3
Duration : 1h 31mn
Bit rate mode : Constant
Bit rate : 448 Kbps
Channel(s) : 6 channels
Channel positions : Front: L C R, Side: L R, LFE
Sampling rate : 48.0 KHz
Bit depth : 16 bits
Compression mode : Lossy
Delay relative to video : 1mn 5s
Stream size : 294 MiB (12%)
Language : Italian
Default : Yes
Forced : No
DURATION : 01:31:44.374000000


Audio #2
ID : 3
Format : AC-3
Format/Info : Audio Coding 3
Mode extension : CM (complete main)
Codec ID : A_AC3
Duration : 1h 31mn
Bit rate mode : Constant
Bit rate : 448 Kbps
Channel(s) : 6 channels
Channel positions : Front: L C R, Side: L R, LFE
Sampling rate : 48.0 KHz
Bit depth : 16 bits
Compression mode : Lossy
Delay relative to video : 1mn 5s
Stream size : 294 MiB (12%)
Language : English
Default : No
Forced : No
DURATION : 01:31:44.374000000


Text #1
ID : 4
Format : PGS
Codec ID : S_HDMV/PGS
Codec ID/Info : The same subtitle format used on BDs/HD-DVDs
Language : Italian
Default : No
Forced : No
DURATION : 01:31:21.973000000

Text #2
ID : 5
Format : PGS
Codec ID : S_HDMV/PGS
Codec ID/Info : The same subtitle format used on BDs/HD-DVDs
Language : English
Default : No
Forced : No
DURATION : 01:25:50.434000000

Text #3
ID : 6
Format : PGS
Codec ID : S_HDMV/PGS
Codec ID/Info : The same subtitle format used on BDs/HD-DVDs
Title : HEARING IMPAIRED
Language : English
Default : No
Forced : No
DURATION : 01:29:51.508000000


Text #4
ID : 7
Format : PGS
Codec ID : S_HDMV/PGS
Codec ID/Info : The same subtitle format used on BDs/HD-DVDs
Title : CANZONI
Language : Italian
Default : No
Forced : No
DURATION : 01:25:50.434000000


Text #5
ID : 8
Format : PGS
Codec ID : S_HDMV/PGS
Codec ID/Info : The same subtitle format used on BDs/HD-DVDs
Title : CANZONI
Language : English
Default : No
Forced : No
DURATION : 01:25:50.434000000

Text #6
ID : 9
Format : PGS
Codec ID : S_HDMV/PGS
Codec ID/Info : The same subtitle format used on BDs/HD-DVDs
Title : COMMENTARY
Language : Italian
Default : No
Forced : No
DURATION : 01:31:03.622000000


Menu
00:00:00.000 : :Chapter 1
00:03:19.616 : :Chapter 2
00:08:24.837 : :Chapter 3
00:13:50.955 : :Chapter 4
00:17:34.887 : :Chapter 5
00:20:53.835 : :Chapter 6
00:25:34.241 : :Chapter 7
00:27:04.748 : :Chapter 8
00:34:58.846 : :Chapter 9
00:38:28.848 : :Chapter 10
00:43:50.794 : :Chapter 11
00:49:25.629 : :Chapter 12
00:51:59.074 : :Chapter 13
00:53:59.736 : :Chapter 14
00:57:26.651 : :Chapter 15
01:03:07.241 : :Chapter 16
01:09:42.553 : :Chapter 17
01:11:28.450 : :Chapter 18
01:14:22.457 : :Chapter 19
01:17:15.380 : :Chapter 20
01:21:48.903 : :Chapter 21
01:26:00.321 : :Chapter 22


[/spoiler]



cWb6Z.gif

nU43TBc.gif
Facebook Twitter Digg Reddit LinkedIn StumbleUpon Email
Show Demonoid some love with BitCoin: 1DNoidyJgB159bLJT5hDnCkZ4uQrhkfBVk How to get BitCoins?
Peers: 9 seeders, 0 leechers, 1284 total - Updated: 1743 hours 10 minutes 23 seconds ago
Size: 2.37 GB  

Sponsored links
Related torrents
Torrents you may also like:
Download this torrent
Extra information
Tracker: udp://tracker.torrent.eu.org:451/announce
Torrent hash: 21A4677D 19FC5096 F388FFD2 F89A181E DB250290
Files described inside the torrent: 1 [ Click here to show the full list ]
Comments
No comments posted yet

Disclaimer: None of the files shown here are actually hosted or transmitted by this server. The links are provided solely by this site's users. The site moderation is also a service provided by the site's users. The administrator of this site (demonoid.is) cannot be held responsible for what its users post, or any other actions of its users. You may not use this site to distribute or download any material when you do not have the legal rights to do so. It is your own responsibility to adhere to these terms.

By using this site you indicate your agreement to our terms and conditions
   
Link to us | Contact us | API | Feeds/RSS | DMCA
This site and the Demonoid logo are Copyright © Demonoid. All rights reserved.

Show Demonoid some love with 1DNoidyJgB159bLJT5hDnCkZ4uQrhkfBVk