User log in
User registration
Registrations are open
Click here to register
Email: forgotten email?
Password: lost pass?
  Resend activation email
Get VPN Now for FREE! Get VPN Now for FREE! Get VPN Now for FREE! Get VPN Now for FREE! Get VPN Now for FREE! Get VPN Now for FREE! Get VPN Now for FREE! Get VPN Now for FREE! Protect your privacy! Use a VPN When Downloading Torrents
Your IP Address is . Location is .
Your Internet Provider is tracking your torrent activity! Hide your IP ADDRESS with a VPN!
We strongly recommend using Trust.Zone VPN to anonymize your torrenting!
Also, while you are using Trsedcb02ust.p8a7641Zone VPN you get No Ads on Demonoid site Get p8a7641VPN Np8a7641ow!
Details for Paprika (1991) 720p h264 Ac3 Ita Sub Eng-MIRCrew
Created by Ratio: 29.80MIRCrew 2 years ago
Movies : Drama : HD 720p : Italian
Paprika (1991) 720p h264 Ac3 Ita Sub Eng-MIRCrew

nuovo-banner-mircrew-3.png
NO FOUND ONLY ORIGINAL RELEASE


My release is always in double track audio italian and Original audio
for select it use VLC or dvd player home
not use wmp

ENGLISH SUBTITLE INSIDE

Paprika (1991)

Quality MIRCrew on HD 720p da 1,6 gb

w.png [postimages.org]

youtube_logo.png [www.youtube.com]

imdb_new.png [www.imdb.com]

mn57cnpqig5g4q2oijj.png

Paese di produzione Italia
Anno 1991
Durata 104 min
Genere erotico
Regia Tinto Brass
Soggetto John Cleland
Sceneggiatura Tinto Brass e Bernardino Zapponi
Produttore Augusto Caminito
Produttore esecutivo Giuseppe Auriemma
Fotografia Silvano Ippoliti
Montaggio Daniele Alabiso
Musiche Riz Ortolani
Scenografia Paolo Biagetti
Costumi Jost Jakob
Trucco Claudia Shone, Dirk Naastepad

tezwu74hy2ea52fcogj2.png

Debora Caprioglio: Mimma "Paprika"
Stéphane Ferrara: Rocco
Martine Brochard: madame Collette
Stéphane Bonnet: Franco
Rossana Gavinel: Gina
Renzo Rinaldi: conte Bastiano Lusaschi
Nina Soldano: giornalista
Clara Algranti: Angelina degli Specchi
Luciana Cirenei: donna Olimpia
John Steiner: principe Ascanio del Brando
Valentine Demy: Beba
Luigi Laezza: Nino, fidanzato di Mimma
Riccardo Garrone: Lele, zio di Mimma
Paul Müller: Milvio
Osiride Pevarello: protettore
Milly Corinaldi: serva nella casa di tolleranza di Trieste
Gianni De Martiis: maggiordomo del conte Bastiano
Andrea Aureli: parente del conte Bastiano
Deborah Calì: prostituta ligure
Eolo Capritti: ammiraglio Ciancalasme
Tinto Brass: dottor Baverelli
Petra Scharbach (non accreditata): duchessa Silvia Dolgoruky, moglie del principe Ascanio

7nliitglybyed4h2s9hg.png

Nel 1957, dando retta ai consigli del fidanzato Nino, la diciottenne Mimma lascia Pola per passare quindici giorni in una casa di tolleranza diretta da madame Colette: è la cosiddetta "quindicina" per aiutare economicamente il fidanzato e metter su casa. Inesperta ma passionale la giovane, soprannominata Paprika dopo avere assaggiato un gulasch, apprende velocemente il mestiere di prostituta.

zikr616teyyksh11mc.png

A young country girl comes to town and works in a brothel in order to help her fiance get the money to start his own business. "Paprika" is the name given to her by the madam.

2duciykqws1elqyaib8c.png

vlcsnap-00001.png [postimages.org]

vlcsnap-00002.png [postimages.org]

vlcsnap-00003.png [postimages.org]

vlcsnap-00004.png [postimages.org]

vlcsnap-00005.png [postimages.org]


4a2jnqtcmuftgydzspa.png

General

Complete name : Paprika (1991) 720p h264 Ac3 Ita Sub Eng-MIRCrew\Paprika (1991).720p.H264.ita.sub.eng-MIRCrew.mkv
Format : Matroska
Format version : Version 2
File size : 1.69 GiB
Duration : 1h 55mn
Overall bit rate : 2 094 Kbps
Movie name : MIRCrew
Encoded date : UTC 2016-05-07 18:52:24
Writing application : Lavf54.63.100
Writing library : Lavf54.63.100
COMMENT : MIRCrew

Video
ID : 1
Format : AVC
Format/Info : Advanced Video Codec
Format profile : [email protected]
Format settings, CABAC : Yes
Format settings, ReFrames : 2 frames
Codec ID : V_MPEG4/ISO/AVC
Duration : 1h 55mn
Bit rate : 1 900 Kbps
Width : 1 280 pixels
Height : 720 pixels
Display aspect ratio : 16:9
Frame rate mode : Variable
Frame rate : 23.976 fps
Color space : YUV
Chroma subsampling : 4:2:0
Bit depth : 8 bits
Scan type : Progressive
Bits/(Pixel*Frame) : 0.086
Stream size : 1.51 GiB (89%)
Writing library : x264 core 130 r2273
Encoding settings : cabac=1 / ref=2 / deblock=1:-1:-1
Default : Yes
Forced : No
DURATION : 01:55:51.236000000


Audio
ID : 2
Format : AC-3
Format/Info : Audio Coding 3
Mode extension : CM (complete main)
Codec ID : A_AC3
Duration : 1h 55mn
Bit rate mode : Constant
Bit rate : 192 Kbps
Channel(s) : 2 channels
Channel positions : Front: L R
Sampling rate : 48.0 KHz
Bit depth : 16 bits
Compression mode : Lossy
Delay relative to video : 1mn 5s
Stream size : 159 MiB (9%)
Title : Ita Ac3 2.0
Language : Italian
Default : No
Forced : No
DURATION : 01:55:51.232000000

Menu
00:00:00.000 : :00:00:00.000
00:11:48.249 : :00:11:48.249
00:18:56.177 : :00:18:56.177
00:27:10.087 : :00:27:10.087
00:38:14.667 : :00:38:14.667
00:51:11.485 : :00:51:11.485
00:58:07.275 : :00:58:07.275
01:09:22.116 : :01:09:22.116
01:18:22.823 : :01:18:22.823
01:29:18.770 : :01:29:18.770
01:40:59.512 : :01:40:59.512
01:53:43.316 : :01:53:43.316




nU43TBc.gif
Facebook Twitter Digg Reddit LinkedIn StumbleUpon Email
Show Demonoid some love with BitCoin: 1DNoidyJgB159bLJT5hDnCkZ4uQrhkfBVk How to get BitCoins?
Peers: 10 seeders, 1 leechers, 2195 total - Updated: 375 hours 46 minutes 10 seconds ago
Size: 1.69 GB  

Sponsored links
Related torrents
Torrents you may also like:
Download this torrent
Extra information
Tracker: udp://tracker.torrent.eu.org:451/announce
Torrent hash: 73EFCF40 DA10482A 18A65D67 65E7582B 9DA21D96
Files described inside the torrent: 2 [ Click here to show the full list ]
Comments
No comments posted yet

Disclaimer: None of the files shown here are actually hosted or transmitted by this server. The links are provided solely by this site's users. The site moderation is also a service provided by the site's users. The administrator of this site (demonoid.is) cannot be held responsible for what its users post, or any other actions of its users. You may not use this site to distribute or download any material when you do not have the legal rights to do so. It is your own responsibility to adhere to these terms.

By using this site you indicate your agreement to our terms and conditions
   
Link to us | Contact us | API | Feeds/RSS | DMCA
This site and the Demonoid logo are Copyright © Demonoid. All rights reserved.

Show Demonoid some love with 1DNoidyJgB159bLJT5hDnCkZ4uQrhkfBVk