User log in
User registration
Registrations are open
Click here to register
Email: forgotten email?
Password: lost pass?
  Resend activation email
Get VPN Now for FREE! Protect your privacy! Use a VPN When Downloading Torrents
Your IP Address is . Location is .
Your Internet Provider is tracking your torrent activity! Hide your IP ADDRESS with a VPN!
We strongly recommend using Trust.Zone VPN to anonymize your torrenting!
Also, while you are using Trt65d198ust.ze38f11Zone VPN you get No Ads on Demonoid site Get ze38f11VPN Nze38f11ow!
Details for AK vs AK 2020 x264 720p Esub NetFLix Hindi GOPI SAHI
Created by Ratio: 1.00gopisahi 2 years ago
Movies : Action : HD 720p : Hindi
https://www.gopisahi.ml/

AK.jpg

AK vs AK 2020 x264 720p Esub NetFLix Hindi GOPI SAHI

Format : Matroska
Format version : Version 4
File size : 772 MiB
Duration : 1 h 49 min
Overall bit rate : 990 kb/s
Movie name : AK vs AK 2020 GOPI SAHI
Encoded date : UTC 2020-12-26 02:55:41

Video
ID : 1
Format : AVC
Format/Info : Advanced Video Codec
Format profile : [email protected]
Format settings : CABAC / 5 Ref Frames
Format settings, CABAC : Yes
Format settings, Reference fra : 5 frames
Codec ID : V_MPEG4/ISO/AVC
Duration : 1 h 48 min
Bit rate : 899 kb/s
Width : 1 280 pixels
Height : 720 pixels
Display aspect ratio : 16:9
Frame rate mode : Constant
Frame rate : 24.000 FPS
Color space : YUV
Chroma subsampling : 4:2:0
Bit depth : 8 bits
Scan type : Progressive
Bits/(Pixel*Frame) : 0.041
Stream size : 696 MiB (90%)
Title : GOPI SAHI
Writing library : x264 core 157 r2935 545de2f

Audio
Format : AAC LC
Duration : 1 h 49 min
Bit rate : 96.0 kb/s
Channel(s) : 2 channels
Channel layout : L R
Sampling rate : 48.0 kHz
Frame rate : 46.875 FPS (1024 SPF)
Compression mode : Lossy
Delay relative to video : -21 ms
Stream size : 74.7 MiB (10%)
Title : GOPI SAHI
Language : Hindi

Text
Language : English

AK%2Bvs%2BAK%2B2020%2Bx264%2B720p%2BEsub...thumbs.jpg

AK%2Bvs%2BAK%2B2020%2Bx264%2B720p%2BEsub...31.479.jpg

AK%2Bvs%2BAK%2B2020%2Bx264%2B720p%2BEsub...20.354.jpg
Facebook Twitter Digg Reddit LinkedIn StumbleUpon Email
Show Demonoid some love with BitCoin: 1DNoidyJgB159bLJT5hDnCkZ4uQrhkfBVk How to get BitCoins?
Peers: 3 seeders, 0 leechers, 3348 total - Updated: 3810 hours 39 minutes 36 seconds ago
Size: 772.19 MB  

Sponsored links
Related torrents
Torrents you may also like:
Download this torrent
Extra information
Tracker: udp://tracker.coppersurfer.tk:6969/announce
Torrent hash: 29426418 3725A552 2123064C B1F13DF7 4454BF63
Files described inside the torrent: 1 [ Click here to show the full list ]
Comments
No comments posted yet

Disclaimer: None of the files shown here are actually hosted or transmitted by this server. The links are provided solely by this site's users. The site moderation is also a service provided by the site's users. The administrator of this site (demonoid.is) cannot be held responsible for what its users post, or any other actions of its users. You may not use this site to distribute or download any material when you do not have the legal rights to do so. It is your own responsibility to adhere to these terms.

By using this site you indicate your agreement to our terms and conditions
   
Link to us | Contact us | API | Feeds/RSS | DMCA
This site and the Demonoid logo are Copyright © Demonoid. All rights reserved.

Show Demonoid some love with 1DNoidyJgB159bLJT5hDnCkZ4uQrhkfBVk