User log in
User registration
Registrations are open
Click here to register
Email: forgotten email?
Password: lost pass?
  Resend activation email
Get VPN Now for FREE! Get VPN Now for FREE! Get VPN Now for FREE! Get VPN Now for FREE! Get VPN Now for FREE! Get VPN Now for FREE! Get VPN Now for FREE! Get VPN Now for FREE! Get VPN Now for FREE! Protect your privacy! Use a VPN When Downloading Torrents
Your IP Address is . Location is .
Your Internet Provider is tracking your torrent activity! Hide your IP ADDRESS with a VPN!
We strongly recommend using Trust.Zone VPN to anonymize your torrenting. It's FREE!
Also, while you are using Trust.Zone VPN you get No Ads for Demonoid members Get VPN Now for FREE!
Details for Yip Man 2 2010 BR EAC3 VFF 1080p x265 10Bits T0M (Ip Man 2, le retour du grand maître)
Created by Ratio: 1.00T0M 2 years ago
Movies : Biography : HEVC / x265 : French

______________________________________________________________________________________________________________
Yip Man 2 2010
Bluray · 1080p x265 10bits · DD+ 5.1 VFF CHI
¯¯¯¯¯¯¯¯¯¯¯¯¯¯¯¯¯¯¯¯¯¯¯¯¯¯¯¯¯¯¯¯¯¯¯¯¯¯¯¯¯¯¯¯¯¯¯¯¯¯¯¯¯¯¯¯¯¯¯¯¯¯¯¯¯¯¯¯¯¯¯¯¯¯¯¯¯¯¯¯



Year : 2010
Country : China, Hong Kong
French title : Ip Man 2, le retour du grand maître
Original title : Yip Man 2
Director : Wilson Yip
Music from : Kenji Kawai
Actors : Donnie Yen, Sammo Hung, Huang Xiao-ming, Xiong Dai Lin
Kent Cheng, Pierre Ngo, Simon Yam, Calvin Cheng, Fan Sui-wong
To Yue-hong, Darren Shahlavi, Ashton Chen
Genre : Martial Arts, Biography, Action, Dramatic Comedy
Certificate :  Not recommended for children under 12 years old
Budget : 12 900 000 $ · Recipe : 15 061 389 $ · ratio : 117 %
Link : Allociné 4,1/5 ·  IMDB 7,6/10 ·  TMDB 73% ·  SensCritique 6,8/10 ·  Wiki ·  Bande Annonce

French Plot
Désireux de faire perpétuer son art, Ip Man décide d'enseigner les arts martiaux au sein d'une école mais essuie l’hostilité de Hung qui est le seul à décider qui peut s'octroyer ce droit. Pour cela, Ip Man doit vaincre une flopée d'adversaires, un défi qu'il relève avec brio mais ces ennuis ne s'arrêtent pas là puisque le gouvernement britannique organise un tournoi auquel participe Twitser, un redoutable champion de boxe.



Technical Details
¯¯¯¯¯¯¯¯¯¯¯¯¯¯¯¯¯¯¯¯¯¯¯¯¯¯¯¯¯¯¯¯¯¯¯¯¯¯¯¯¯¯¯¯¯¯¯¯¯¯¯¯¯¯¯¯¯¯¯¯¯¯¯¯¯¯¯¯¯¯¯¯¯¯¯¯¯¯¯¯¯¯¯¯¯¯¯¯¯¯¯¯¯¯¯¯¯¯¯¯
     
Media
Matroska 3,86Gio 1h48mn 5102Kbps
Video
HEVC/H265 1920x818 @23.976 [email protected]@Main 10bits 4197Kbps VerySlow
Audio
   True French 5.1 EAC3 448Kbps 48KHz 16bits
   Chinese 5.1 EAC3 448Kbps 48KHz 16bits
Subtitles
 True French forced SRT
 True French full SRT
 True French forced PGS
 True French full PGS
Chapters
International
Screenshot
     

NFO
¯¯¯¯¯¯¯¯¯¯¯¯¯¯¯¯¯¯¯¯¯¯¯¯¯¯¯¯¯¯¯¯¯¯¯¯¯¯¯¯¯¯¯¯¯¯¯¯¯¯¯¯¯¯¯¯¯¯¯¯¯¯¯¯¯¯¯¯¯¯¯¯¯¯¯¯¯¯¯¯¯¯¯¯¯¯¯¯¯¯¯¯¯¯¯¯¯¯¯¯

General
Complete name                            : Ip Man 2 2010 BR EAC3 VFF CHI 1080p x265 10Bits T0M.mkv
Format                                   : Matroska
Format version                           : Version 4
File size                                : 3.86 GiB
Duration                                 : 1 h 48 min
Overall bit rate                         : 5 102 kb/s
Movie name                               : Ip Man 2, le retour du grand maître (Yip Man 2) 2010 de Wilson Yip avec Donnie Yen, Sammo Hung, Huang Xiao-ming, Xiong Dai Lin, Kent Cheng, Pierre Ngo, Simon Yam, Calvin Cheng, Fan Sui-wong, To Yue-hong, Darren Shahlavi, Ashton Chen. -12 ans (allocine=178267,imdb=tt1386932) T0M
Encoded date                             : UTC 2019-09-19 08:12:33
Writing application                      : mkvmerge v35.0.0 ('All The Love In The World') 64-bit
Writing library                          : libebml v1.3.9 + libmatroska v1.5.2
Cover                                    : Yes
Attachments                              : Cover.jpg

Video
ID                                       : 1
Format                                   : HEVC
Format/Info                              : High Efficiency Video Coding
Format profile                           : Main [email protected]@Main
Codec ID                                 : V_MPEGH/ISO/HEVC
Duration                                 : 1 h 48 min
Bit rate                                 : 4 197 kb/s
Width                                    : 1 920 pixels
Height                                   : 818 pixels
Display aspect ratio                     : 2.35:1
Frame rate mode                          : Constant
Frame rate                               : 23.976 (24000/1001) FPS
Color space                              : YUV
Chroma subsampling                       : 4:2:0
Bit depth                                : 10 bits
Bits/(Pixel*Frame)                       : 0.111
Stream size                              : 3.18 GiB (82%)
Title                                    : Video HEVC 1920x818 @23.976 x265 [email protected]@Main 10bits 4200kbps 2pass veryslow 1950mn
Writing library                          : x265 2.9:[Windows][GCC 8.2.0][64 bit] 10bit
Encoding settings                        : cpuid=1111039 / frame-threads=3 / numa-pools=8 / wpp / no-pmode / no-pme / no-psnr / no-ssim / log-level=2 / input-csp=1 / input-res=1920x818 / interlace=0 / total-frames=0 / level-idc=0 / high-tier=1 / uhd-bd=0 / ref=5 / no-allow-non-conformance / no-repeat-headers / annexb / no-aud / no-hrd / info / hash=0 / no-temporal-layers / open-gop / min-keyint=24 / keyint=240 / gop-lookahead=0 / bframes=8 / b-adapt=2 / b-pyramid / bframe-bias=0 / rc-lookahead=120 / lookahead-slices=0 / scenecut=40 / radl=0 / no-intra-refresh / ctu=64 / min-cu-size=8 / rect / amp / max-tu-size=32 / tu-inter-depth=3 / tu-intra-depth=3 / limit-tu=4 / rdoq-level=2 / dynamic-rd=0.00 / no-ssim-rd / signhide / no-tskip / nr-intra=0 / nr-inter=0 / no-constrained-intra / strong-intra-smoothing / max-merge=4 / limit-refs=1 / limit-modes / me=3 / subme=4 / merange=57 / temporal-mvp / weightp / weightb / no-analyze-src-pics / deblock=0:0 / sao / no-sao-non-deblock / rd=6 / no-early-skip / rskip / no-fast-intra / no-tskip-fast / no-cu-lossless / b-intra / no-splitrd-skip / rdpenalty=0 / psy-rd=2.00 / psy-rdoq=1.00 / no-rd-refine / no-lossless / cbqpoffs=0 / crqpoffs=0 / rc=abr / bitrate=4200 / qcomp=0.60 / qpstep=4 / stats-write=0 / stats-Read=2 / cplxblur=20.0 / qblur=0.5 / ipratio=1.40 / pbratio=1.30 / aq-mode=1 / aq-strength=1.00 / cutree / zone-count=0 / no-strict-cbr / qg-size=32 / no-rc-grain / qpmax=69 / qpmin=0 / no-const-vbv / sar=1 / overscan=0 / videoformat=5 / range=0 / colorprim=1 / transfer=1 / colormatrix=1 / chromaloc=0 / display-window=0 / max-cll=0,0 / min-luma=0 / max-luma=1023 / log2-max-poc-lsb=8 / vui-timing-info / vui-hrd-info / slices=1 / no-opt-qp-pps / no-opt-ref-list-length-pps / no-multi-pass-opt-rps / scenecut-bias=0.05 / no-opt-cu-delta-qp / no-aq-motion / no-hdr / no-hdr-opt / no-dhdr10-opt / no-idr-recovery-sei / analysis-reuse-level=5 / scale-factor=0 / refine-intra=0 / refine-inter=0 / refine-mv=0 / no-limit-sao / ctu-info=0 / no-lowpass-dct / refine-mv-type=0 / copy-pic=1 / max-ausize-factor=1.0 / no-dynamic-refine / no-single-sei
Default                                  : Yes
Forced                                   : No
Color range                              : Limited
Color primaries                          : BT.709
Transfer characteristics                 : BT.709
Matrix coefficients                      : BT.709

Audio #1
ID                                       : 2
Format                                   : E-AC-3
Format/Info                              : Enhanced AC-3
Commercial name                          : Dolby Digital Plus
Codec ID                                 : A_EAC3
Duration                                 : 1 h 48 min
Bit rate mode                            : Constant
Bit rate                                 : 448 kb/s
Channel(s)                               : 6 channels
Channel layout                           : L R C LFE Ls Rs
Sampling rate                            : 48.0 kHz
Frame rate                               : 31.250 FPS (1536 SPF)
Compression mode                         : Lossy
Stream size                              : 347 MiB (9%)
Title                                    : Français 5.1 EAC3 448kbps 48khz 16bits
Language                                 : French
Service kind                             : Complete Main
Default                                  : Yes
Forced                                   : No

Audio #2
ID                                       : 3
Format                                   : E-AC-3
Format/Info                              : Enhanced AC-3
Commercial name                          : Dolby Digital Plus
Codec ID                                 : A_EAC3
Duration                                 : 1 h 48 min
Bit rate mode                            : Constant
Bit rate                                 : 448 kb/s
Channel(s)                               : 6 channels
Channel layout                           : L R C LFE Ls Rs
Sampling rate                            : 48.0 kHz
Frame rate                               : 31.250 FPS (1536 SPF)
Compression mode                         : Lossy
Stream size                              : 347 MiB (9%)
Title                                    : Chinese 5.1 EAC3 448kbps 48khz 16bits
Language                                 : Chinese
Service kind                             : Complete Main
Default                                  : No
Forced                                   : No

Text #1
ID                                       : 4
Format                                   : UTF-8
Codec ID                                 : S_TEXT/UTF8
Codec ID/Info                            : UTF-8 Plain Text
Duration                                 : 1 h 48 min
Bit rate                                 : 1 b/s
Count of elements                        : 23
Stream size                              : 1.08 KiB (0%)
Title                                    : Français forcé (Passages)
Language                                 : French
Default                                  : Yes
Forced                                   : Yes

Text #2
ID                                       : 5
Format                                   : UTF-8
Codec ID                                 : S_TEXT/UTF8
Codec ID/Info                            : UTF-8 Plain Text
Duration                                 : 1 h 48 min
Bit rate                                 : 36 b/s
Count of elements                        : 1080
Stream size                              : 28.6 KiB (0%)
Title                                    : Français complet (Tous le film)
Language                                 : French
Default                                  : No
Forced                                   : No

Text #3
ID                                       : 6
Format                                   : PGS
Muxing mode                              : zlib
Codec ID                                 : S_HDMV/PGS
Codec ID/Info                            : Picture based subtitle format used on BDs/HD-DVDs
Duration                                 : 1 h 44 min
Bit rate                                 : 699 b/s
Count of elements                        : 42
Stream size                              : 535 KiB (0%)
Title                                    : Français forcé (Passages) PGS
Language                                 : French
Default                                  : No
Forced                                   : Yes

Text #4
ID                                       : 7
Format                                   : PGS
Muxing mode                              : zlib
Codec ID                                 : S_HDMV/PGS
Codec ID/Info                            : Picture based subtitle format used on BDs/HD-DVDs
Duration                                 : 1 h 47 min
Bit rate                                 : 23.7 kb/s
Count of elements                        : 2158
Stream size                              : 18.1 MiB (0%)
Title                                    : Français complet (Tous le film) PGS
Language                                 : French
Default                                  : No
Forced                                   : No

Menu
00:00:00.000                             : :01 - 00:00:00
00:03:00.639                             : :02 - 00:03:00
00:09:30.862                             : :03 - 00:09:30
00:13:55.126                             : :04 - 00:13:55
00:19:54.527                             : :05 - 00:19:54
00:26:51.401                             : :06 - 00:26:51
00:33:09.654                             : :07 - 00:33:09
00:36:30.230                             : :08 - 00:36:30
00:46:51.308                             : :09 - 00:46:51
00:54:09.621                             : :10 - 00:54:09
00:59:10.547                             : :11 - 00:59:10
01:08:19.679                             : :12 - 01:08:19
01:12:24.006                             : :13 - 01:12:24
01:17:38.362                             : :14 - 01:17:38
01:22:53.677                             : :15 - 01:22:53
01:29:46.381                             : :16 - 01:29:46
01:40:46.624                             : :17 - 01:40:46
01:44:54.413                             : :18 - 01:44:54


Facebook Twitter Digg Reddit LinkedIn StumbleUpon Email
Show Demonoid some love with BitCoin: 1DNoidyJgB159bLJT5hDnCkZ4uQrhkfBVk How to get BitCoins?
Peers: 2 seeders, 0 leechers, 144 total - Updated: 7 months ago [ Update now ]
Size: 3.86 GB  

Sponsored links
Related torrents
Torrents you may also like:
Download this torrent
Extra information
Tracker: udp://tracker.opentrackr.org:1337/announce
Torrent hash: EEAF4442 683B5632 03CFB58B AE2C2BC8 D710D9E4
Files described inside the torrent: 1 [ Click here to show the full list
Comments
No comments posted yet

Disclaimer: None of the files shown here are actually hosted or transmitted by this server. The links are provided solely by this site's users. The site moderation is also a service provided by the site's users. The administrator of this site (demonoid.is) cannot be held responsible for what its users post, or any other actions of its users. You may not use this site to distribute or download any material when you do not have the legal rights to do so. It is your own responsibility to adhere to these terms.

By using this site you indicate your agreement to our terms and conditions
   
Link to us | Contact us | API | Commemoration | Feeds/RSS | DMCA
This site and the Demonoid logo are Copyright © Demonoid. All rights reserved.

Show Demonoid some love with 1DNoidyJgB159bLJT5hDnCkZ4uQrhkfBVk