User log in
User registration
Registrations are open
Click here to register
Email: forgotten email?
Password: lost pass?
  Resend activation email
Protect your privacy! Use a VPN When Downloading Torrents
Your IP Address is . Location is .
Your Internet Provider is tracking your torrent activity! Hide your IP ADDRESS with a VPN!
We strongly recommend using NORD VPN to anonymize your torrenting.
Also, while you are using NORD you get No Ads for Demonoid members Get VPN Now!
Details for Bad Company - Bad Company (1974) (PBTHAL LP 24-96) [FLAC] vtwin88cube
Created by Ratio: 1.00vtwin88cube 5 months ago[ Add to bookmark ]
Music : Rock : Lossless
Bad Company
Bad Company (1974)
FLAC LOSSLESS 24bit-96kHz
PBTHAL Vinyl


allmusic.com...

From the wreckage of Free came Bad Company, a group fronted by singer Paul Rodgers and featuring his drummer bandmate Simon Kirke, Mott the Hoople guitarist Mick Ralphs, and King Crimson bassist Boz Burrell. The latter is something of a ringer, suggesting an undercurrent of adventure in the band, but as the group's eponymous 1974 debut decidedly proves, the band is proudly not progressive. If anything, Bad Company excise the excesses of Free -- there are no winding jams and very little added color by way of pianos or even air in the production; those two tricks are evident on their title track/rallying call "Bad Company," and the details make a difference, as do the pastoral acoustics of the closing "Seagull" -- reducing their rock & roll to a strong, heavy crunch; compare "Ready for Love," a tune Ralphs brought over from Mott the Hoople, to the original to see how these quartet members keep their heads down as they do their business. Appropriately enough given their name, there's a sense of slow, churning menace to Bad Company. Even the quickest songs -- the blues boogies of "Can't Get Enough" and "Movin' On" -- don't exactly proceed at a rapid clip, a steadiness that makes the quartet seem heavier. It's hard rock painted in stark black & white: cranked guitars mirrored by a deliberate wallop from the rhythm section, a rock & roll so loud and basic it wound up not aging much at all even though it pretty much defined mid-'70s album rock.


foobar2000 1.4.3 / Dynamic Range Meter 1.1.1
log date: 2020-11-07 10:59:45

--------------------------------------------------------------------------------
Analyzed: Bad Company / Bad Company
--------------------------------------------------------------------------------

DR        Peak        RMS    Duration Track
--------------------------------------------------------------------------------
DR14      -1.02 dB  -16.49 dB      4:16 01-Can't Get Enough
DR13      -2.68 dB  -18.23 dB      3:47 02-Rock Steady
DR14      -1.79 dB  -18.54 dB      5:00 03-Ready For Love
DR13      -1.20 dB  -18.39 dB      4:23 04-Don't Let Me Down
DR13      -1.63 dB  -17.82 dB      4:49 05-Bad Company
DR15      -0.71 dB  -18.92 dB      5:06 06-The Way I Choose
DR12      -2.75 dB  -16.53 dB      3:24 07-Movin' On
DR11      -5.25 dB  -18.65 dB      4:06 08-Seagull


Number of tracks:  8
Official DR value: DR13

Samplerate:        96000 Hz
Channels:          2
Bits per sample:  24
Bitrate:          2897 kbps
Codec:            FLAC




Support the artists...
buy it if you like it!

Thanks for Seeding!
Cheers!
Facebook Twitter Digg Reddit LinkedIn StumbleUpon Email
Show Demonoid some love with BitCoin: 1DNoidyJgB159bLJT5hDnCkZ4uQrhkfBVk How to get BitCoins?
Peers: 4 seeders, 0 leechers, 1207 total - Updated: 2 months ago [ Update now ]
Size: 708.02 MB 

Sponsored links
Related torrents
Torrents you may also like:
Download this torrent
Extra information
Tracker: udp://tracker.openbittorrent.com:80/announce
Torrent hash: AB507F69 8AC76389 4173DC85 73A3D62C 239E1F3A
Files described inside the torrent: 12 [ Click here to show the full list ]
Comments
No comments posted yet

Disclaimer: None of the files shown here are actually hosted or transmitted by this server. The links are provided solely by this site's users. The site moderation is also a service provided by the site's users. The administrator of this site (demonoid.is) cannot be held responsible for what its users post, or any other actions of its users. You may not use this site to distribute or download any material when you do not have the legal rights to do so. It is your own responsibility to adhere to these terms.

By using this site you indicate your agreement to our terms and conditions
   
Link to us | Contact us | API | Commemoration | Twitter: @DemonoidBT | Feeds/RSS | DMCA
This site and the Demonoid logo are Copyright © Demonoid. All rights reserved.

Show Demonoid some love with 1DNoidyJgB159bLJT5hDnCkZ4uQrhkfBVk