User log in
User registration
Registrations are open
Click here to register
Email: forgotten email?
Password: lost pass?
  Resend activation email
Get VPN Now for FREE! Get VPN Now for FREE! Get VPN Now for FREE! Protect your privacy! Use a VPN When Downloading Torrents
Your IP Address is . Location is .
Your Internet Provider is tracking your torrent activity! Hide your IP ADDRESS with a VPN!
We strongly recommend using Trust.Zone VPN to anonymize your torrenting. It's FREE!
Also, while you are using Tv5a7e8crust36051ct.ne439f5Zone VPN you get No Ads for Demonoid members Get t36051cVPN Nt36051cow for FREt64e9a3Ec6fc855!
Details for Santana - Santana (1969) (PBTHAL LP 24-96) [FLAC] vtwin88cube
Created by Ratio: 12.50vtwin88cube 1 year ago
Music : Rock : Lossless
Santana
Santana (1969)
FLAC LOSSLESS 24bit-96kHz
PBTHAL MFSL 45 Vinyl


allmusic.com...

Before the arrival of Carlos Santana's eponymous band, the San Francisco rock scene drew the inspiration for its jam-oriented music mainly from blues, rock, and Eastern modalities. Santana added Latin music to the mix, forever changing the course of rock & roll history. On their groundbreaking debut album, the group mix Latin percussion with driving rock grooves. Santana's unique guitar style, alternately biting and liquid, vies with the multiple percussionists for the sonic focus. Unlike later efforts, Santana's first album features an abundance of loose, collective compositions based on a couple of simple riffs ("Jingo," "Soul Sacrifice"). This approach allows for Santana and his bandmates to flex their improvisational muscles to fine effect. The high-energy level on Santana is infectious -- the laid-back feel of other '60s San Francisco groups was clearly not for Carlos and co.


foobar2000 1.4.3 / Dynamic Range Meter 1.1.1
log date: 2020-11-07 19:17:25

--------------------------------------------------------------------------------
Analyzed: Santana / Santana
--------------------------------------------------------------------------------

DR         Peak         RMS     Duration Track
--------------------------------------------------------------------------------
DR11      -1.81 dB   -15.69 dB      4:07 01-Waiting
DR10      -1.09 dB   -14.97 dB      4:01 02-Evil Ways
DR10      -2.25 dB   -14.48 dB      3:17 03-Shades Of Time
DR10      -1.00 dB   -14.31 dB      2:46 04-Savor
DR10      -1.05 dB   -13.36 dB      4:21 05-Jin-Go-Lo-Ba
DR11      -1.00 dB   -14.27 dB      2:37 06-Persuasion
DR11      -1.69 dB   -17.40 dB      4:52 07-Treat
DR11      -2.64 dB   -16.23 dB      4:38 08-You Just Don't Care
DR11      -1.20 dB   -14.73 dB      6:41 09-Soul Sacrifice

Number of tracks:  9
Official DR value: DR11

Samplerate:        96000 Hz
Channels:          2
Bits per sample:   24
Bitrate:           2939 kbps
Codec:             FLAC




Support the artists...
buy it if you like it!

Thanks for Seeding!
Cheers!
Facebook Twitter Digg Reddit LinkedIn StumbleUpon Email
Show Demonoid some love with BitCoin: 1DNoidyJgB159bLJT5hDnCkZ4uQrhkfBVk How to get BitCoins?
Peers: 4 seeders, 0 leechers, 1,611 total - Updated: 18 days ago [ Update now ]
Size: 799.70 MB  

Sponsored links
Related torrents
Torrents you may also like:
Download this torrent
Extra information
Tracker: udp://tracker.openbittorrent.com:80/announce
Torrent hash: 48D98F52 60D4D7F7 FB850982 E2989944 74057AE1
Files described inside the torrent: 13 [ Click here to show the full list ]
Comments
<< Prev        Next >>
| 1 - 1 | 1 items total
Posted by Ratio: 1.00l1f3f0rm1 1 year ago [ Complain ] [ Send PM ]
Respect & thanks!
| 1 - 1 | 1 items total
<< Prev        Next >>

Disclaimer: None of the files shown here are actually hosted or transmitted by this server. The links are provided solely by this site's users. The site moderation is also a service provided by the site's users. The administrator of this site (demonoid.is) cannot be held responsible for what its users post, or any other actions of its users. You may not use this site to distribute or download any material when you do not have the legal rights to do so. It is your own responsibility to adhere to these terms.

By using this site you indicate your agreement to our terms and conditions
   
Link to us | Contact us | API | Commemoration | Feeds/RSS | DMCA
This site and the Demonoid logo are Copyright © Demonoid. All rights reserved.

Show Demonoid some love with 1DNoidyJgB159bLJT5hDnCkZ4uQrhkfBVk