User log in
User registration
Registrations are open
Click here to register
Email: forgotten email?
Password: lost pass?
  Resend activation email
Get VPN Now for FREE! Get VPN Now for FREE! Get VPN Now for FREE! Get VPN Now for FREE! Protect your privacy! Use a VPN When Downloading Torrents
Your IP Address is . Location is .
Your Internet Provider is tracking your torrent activity! Hide your IP ADDRESS with a VPN!
We strongly recommend using Trust.Zone VPN to anonymize your torrenting. It's FREE!
Also, while you are using Tw62ff41rusc4d4193t.ld13ef0Zone VPN you get No Ads for Demonoid members Get c4d4193VPN Nc4d4193ow for FREqebf1a4Ee320cc9!
Details for MasterChef (UK) The Professionals S12E06 (1280x720p HD, 50fps, soft Eng subs)
Created by Ratio: 3.44ElsonRoa 2 years ago
TV : Reality : HD 720p : English
MasterChef (UK) The Professionals S12E06 (1280x720p HD, 50fps, soft Eng subs)

Celebrated MasterChef presenter Gregg Wallace, reputed chef Monica Galetti and Michelin-starred Marcus Wareing are together once again in their search for the UK's finest cooking talent.

This quarter-final sees the six most talented chefs from the week's heats set out to impress Monica and Marcus in two high-stakes challenges.

First up, the chefs face an invention test, featuring a particular ingredient. This week, Monica has selected a favourite, found at the heart of many cuisines - the onion. The professionals are under pressure when faced with a whole host of varieties of onion and a huge array of other ingredients. They need to focus and rapidly find inspiration to cook a dish in 70 minutes that will deliver flavour, finesse, sparkle, and an inspired approach to the onion. At the end of the challenge, two contestants leave the competition.

The remaining four chefs go on to cook their food for three of the UK's most discerning restaurant critics. William Sitwell, Tracey MacLeod and Amol Rajan take great delight in dishing up their opinions and uncovering new culinary talent. The hopefuls are given one hour and 15 minutes to showcase their culinary prowess with a two-course menu designed to dazzle the critics and the judges and keep them in the competition.  

Only the three most talented chefs will go through to knockout week and continue their pursuit of the MasterChef: The Professionals 2019 title.

First broadcast:  14 November 2019
Duration:  1 hour

Torrent dead? Request reseed at torrentgalaxy.org - or ask at elsonroa at tutanota.com

Media info:-
General
Format : MPEG-4
Format profile : Base Media
Codec ID : isom (isom/iso2/avc1/mp41)
File size : 2.10 GiB
Duration : 58mn 56s
Overall bit rate mode : Variable
Overall bit rate : 5 108 Kbps


Video
ID : 1
Format : AVC
Format/Info : Advanced Video Codec
Format profile : [email protected]
Format settings, CABAC : Yes
Format settings, ReFrames : 4 frames
Codec ID : avc1
Codec ID/Info : Advanced Video Coding
Duration : 58mn 56s
Bit rate : 4 973 Kbps
Width : 1 280 pixels
Height : 720 pixels
Display aspect ratio : 16:9
Frame rate mode : Constant
Frame rate : 50.000 fps
Color space : YUV
Chroma subsampling : 4:2:0
Bit depth : 8 bits
Scan type : Progressive
Bits/(Pixel*Frame) : 0.108
Stream size : 2.05 GiB (97%)
Encoded date : UTC 1904-01-01 00:00:00
Tagged date : UTC 1904-01-01 00:00:00
Color range : Limited
Color primaries : BT.709
Transfer characteristics : BT.709
Matrix coefficients : BT.709

Audio
ID : 2
Format : AAC
Format/Info : Advanced Audio Codec
Format profile : LC
Codec ID : 40
Duration : 58mn 56s
Bit rate mode : Variable
Bit rate : 128 Kbps
Maximum bit rate : 146 Kbps
Channel(s) : 2 channels
Channel positions : Front: L R
Sampling rate : 48.0 KHz
Frame rate : 46.875 fps (1024 spf)
Compression mode : Lossy
Stream size : 54.0 MiB (3%)

Facebook Twitter Digg Reddit LinkedIn StumbleUpon Email
Show Demonoid some love with BitCoin: 1DNoidyJgB159bLJT5hDnCkZ4uQrhkfBVk How to get BitCoins?
Peers: 0 seeders, 0 leechers, 0 total - Updated: 8 months ago
Size: 2.10 GB  

Sponsored links
Related torrents
Torrents you may also like:
Download this torrent
Extra information
Tracker: udp://tracker.leechers-paradise.org:6969/announce
Torrent hash: 4B0FEDA3 742D07DA 423C3AB1 CE25A489 9855E08D
Files described inside the torrent: 7 [ Click here to show the full list ]
Comments
No comments posted yet

Disclaimer: None of the files shown here are actually hosted or transmitted by this server. The links are provided solely by this site's users. The site moderation is also a service provided by the site's users. The administrator of this site (demonoid.is) cannot be held responsible for what its users post, or any other actions of its users. You may not use this site to distribute or download any material when you do not have the legal rights to do so. It is your own responsibility to adhere to these terms.

By using this site you indicate your agreement to our terms and conditions
   
Link to us | Contact us | API | Commemoration | Feeds/RSS | DMCA
This site and the Demonoid logo are Copyright © Demonoid. All rights reserved.

Show Demonoid some love with 1DNoidyJgB159bLJT5hDnCkZ4uQrhkfBVk