User log in
User registration
Registrations are open
Click here to register
Email: forgotten email?
Password: lost pass?
  Resend activation email
Get VPN Now for FREE! Get VPN Now for FREE! Get VPN Now for FREE! Get VPN Now for FREE! Protect your privacy! Use a VPN When Downloading Torrents
Your IP Address is . Location is .
Your Internet Provider is tracking your torrent activity! Hide your IP ADDRESS with a VPN!
We strongly recommend using Trust.Zone VPN to anonymize your torrenting. It's FREE!
Also, while you are using Tb654192rusa59b29et.m87dc82Zone VPN you get No Ads for Demonoid members Get a59b29eVPN Na59b29eow for FREd772d72Eve5b45a!
Details for Metallica - Kill 'Em All (1983) (PBTHAL LP 24-96) [FLAC] vtwin88cube
Created by Ratio: 7.99vtwin88cube 1 year ago
Music : Metal : Lossless
Metallica
Kill 'Em All (1983)
FLAC LOSSLESS 24bit-96kHz
PBTHAL Vinyl


allmusic.com...

The true birth of thrash. On Kill 'Em All, Metallica fuses the intricate riffing of New Wave of British Heavy Metal bands like Judas Priest, Iron Maiden, and Diamond Head with the velocity of Motörhead and hardcore punk. James Hetfield's highly technical rhythm guitar style drives most of the album, setting new standards of power, precision, and stamina. But really, the rest of the band is just as dexterous, playing with tightly controlled fury even at the most ridiculously fast tempos.


foobar2000 1.4.3 / Dynamic Range Meter 1.1.1
log date: 2020-11-01 14:25:12

--------------------------------------------------------------------------------
Analyzed: Metallica / Kill 'Em All
--------------------------------------------------------------------------------

DR         Peak         RMS     Duration Track
--------------------------------------------------------------------------------
DR12      -1.00 dB   -15.11 dB      4:18 01-Hit The Lights
DR12      -1.35 dB   -15.64 dB      7:13 02-The Four Horsemen
DR12      -1.66 dB   -15.84 dB      3:08 03-Motorbreath
DR12      -1.44 dB   -15.67 dB      4:42 04-Jump In The Fire
DR12      -4.04 dB   -17.57 dB      4:15 05-(Anesthesia) - Pulling Teeth
DR10      -3.36 dB   -15.87 dB      4:08 06-Whiplash
DR11      -1.74 dB   -14.47 dB      5:01 07-Phantom Lord
DR12      -1.10 dB   -14.76 dB      6:27 08-No Remorse
DR12      -1.00 dB   -15.35 dB      6:55 09-Seek & Destroy
DR11      -1.11 dB   -14.07 dB      5:12 10-Metal Militia

Number of tracks:  10
Official DR value: DR12

Samplerate:        96000 Hz
Channels:          2
Bits per sample:   24
Bitrate:           3170 kbps
Codec:             FLAC




Support the artists...
buy it if you like it!

Thanks for Seeding!
Cheers!
Facebook Twitter Digg Reddit LinkedIn StumbleUpon Email
Show Demonoid some love with BitCoin: 1DNoidyJgB159bLJT5hDnCkZ4uQrhkfBVk How to get BitCoins?
Peers: 14 seeders, 2 leechers, 1,777 total - Updated: 2 months ago
Size: 1.12 GB  

Sponsored links
Related torrents
Torrents you may also like:
Download this torrent
Extra information
Tracker: udp://tracker.openbittorrent.com:80/announce
Torrent hash: 702A0737 B08EF83E E3F2CF7D 6557E286 9103CF38
Files described inside the torrent: 24 [ Click here to show the full list ]
Comments
No comments posted yet

Disclaimer: None of the files shown here are actually hosted or transmitted by this server. The links are provided solely by this site's users. The site moderation is also a service provided by the site's users. The administrator of this site (demonoid.is) cannot be held responsible for what its users post, or any other actions of its users. You may not use this site to distribute or download any material when you do not have the legal rights to do so. It is your own responsibility to adhere to these terms.

By using this site you indicate your agreement to our terms and conditions
   
Link to us | Contact us | API | Commemoration | Feeds/RSS | DMCA
This site and the Demonoid logo are Copyright © Demonoid. All rights reserved.

Show Demonoid some love with 1DNoidyJgB159bLJT5hDnCkZ4uQrhkfBVk