User log in
User registration
Registrations are open
Click here to register
Email: forgotten email?
Password: lost pass?
  Resend activation email
Get VPN Now for FREE! Get VPN Now for FREE! Get VPN Now for FREE! Protect your privacy! Use a VPN When Downloading Torrents
Your IP Address is . Location is .
Your Internet Provider is tracking your torrent activity! Hide your IP ADDRESS with a VPN!
We strongly recommend using Trust.Zone VPN to anonymize your torrenting. It's FREE!
Also, while you are using Tv5a7e8crust36051ct.ne439f5Zone VPN you get No Ads for Demonoid members Get t36051cVPN Nt36051cow for FREt64e9a3Ec6fc855!
Details for The Beatles - Abbey Road (1969) (2012 Vinyl 24bit-96-kHz) [FLAC] vtwin88cube
Created by Ratio: 12.50vtwin88cube 1 year ago
Music : Rock : Lossless
The Beatles
Abbey Road (1969)
FLAC LOSSLESS 24bit-96kHz


allmusic.com...

In many ways, Abbey Road stands apart from the rest of the Beatles' catalog, an album that gains considerable strength from its lush, enveloping production -- a recording so luxuriant, it glosses over aesthetic differences between the group's main three songwriters and ties together a series of disconnected unfinished songs into a complete suite.

Original Studio Recordings
180g Vinyl 2012
Limited Edition Box Set
Remastered In Stereo

Apple/Parlophone/Capitol
5099963380910


foobar2000 1.4.3 / Dynamic Range Meter 1.1.1
log date: 2020-10-20 19:50:15

--------------------------------------------------------------------------------
Analyzed: The Beatles / Abbey Road
--------------------------------------------------------------------------------

DR         Peak         RMS     Duration Track
--------------------------------------------------------------------------------
DR12       0.00 dB   -14.23 dB      4:17 01-Come Together
DR12       0.00 dB   -15.77 dB      3:00 02-Something
DR13      -0.21 dB   -16.89 dB      3:26 03-Maxwell's Silver Hammer
DR13       0.00 dB   -14.53 dB      3:25 04-Oh! Darling
DR13       0.00 dB   -16.00 dB      2:49 05-Octopus's Garden
DR12       0.00 dB   -14.14 dB      7:40 06-I Want You (She's So Heavy)
DR11       0.00 dB   -13.06 dB      3:04 07-Here Comes The Sun
DR11      -1.97 dB   -16.16 dB      2:44 08-Because
DR12       0.00 dB   -15.26 dB      4:00 09-You Never Give Me Your Money
DR11      -2.16 dB   -15.94 dB      2:25 10-Sun King
DR12       0.00 dB   -13.72 dB      1:06 11-Mean Mr. Mustard
DR11       0.00 dB   -12.37 dB      1:18 12-Polythene Pam
DR11       0.00 dB   -12.32 dB      1:52 13-She Came In Through The Bathroom Window
DR12       0.00 dB   -15.01 dB      1:31 14-Golden Slumbers
DR11       0.00 dB   -12.57 dB      1:35 15-Carry That Weight
DR11       0.00 dB   -14.06 dB      2:20 16-The End
DR11      -2.01 dB   -20.95 dB      0:23 17-Her Majesty

Number of tracks:  17
Official DR value: DR12

Samplerate:        96000 Hz
Channels:          2
Bits per sample:   24
Bitrate:           2663 kbps
Codec:             FLAC




Support the artists...
buy it if you like it!

Thanks for Seeding!
Cheers!
Facebook Twitter Digg Reddit LinkedIn StumbleUpon Email
Show Demonoid some love with BitCoin: 1DNoidyJgB159bLJT5hDnCkZ4uQrhkfBVk How to get BitCoins?
Peers: 19 seeders, 0 leechers, 2,535 total - Updated: 10 months ago [ Update now ]
Size: 965.96 MB  

Sponsored links
Related torrents
Torrents you may also like:
Download this torrent
Extra information
Tracker: udp://tracker.openbittorrent.com:80/announce
Torrent hash: 10C57E10 EE365FBA 74BB2104 84440948 0CF447BF
Files described inside the torrent: 37 [ Click here to show the full list ]
Comments
<< Prev        Next >>
| 1 - 1 | 1 items total
Posted by Ratio: 1.00pik46 1 year ago [ Complain ] [ Send PM ]
thanks for all these fab torrents
| 1 - 1 | 1 items total
<< Prev        Next >>

Disclaimer: None of the files shown here are actually hosted or transmitted by this server. The links are provided solely by this site's users. The site moderation is also a service provided by the site's users. The administrator of this site (demonoid.is) cannot be held responsible for what its users post, or any other actions of its users. You may not use this site to distribute or download any material when you do not have the legal rights to do so. It is your own responsibility to adhere to these terms.

By using this site you indicate your agreement to our terms and conditions
   
Link to us | Contact us | API | Commemoration | Feeds/RSS | DMCA
This site and the Demonoid logo are Copyright © Demonoid. All rights reserved.

Show Demonoid some love with 1DNoidyJgB159bLJT5hDnCkZ4uQrhkfBVk