User log in
User registration
Registrations are open
Click here to register
Email: forgotten email?
Password: lost pass?
  Resend activation email
Get VPN Now for FREE! Get VPN Now for FREE! Get VPN Now for FREE! Get VPN Now for FREE! Get VPN Now for FREE! Get VPN Now for FREE! Protect your privacy! Use a VPN When Downloading Torrents
Your IP Address is . Location is .
Your Internet Provider is tracking your torrent activity! Hide your IP ADDRESS with a VPN!
We strongly recommend using Trust.Zone VPN to anonymize your torrenting. It's FREE!
Also, while you are using Trust.Zone VPN you get No Ads for Demonoid members Get VPN Now for FREE!
Details for Motley Crue - Dr. Feelgood (1989) (Vinyl 24bit-96kHz) [FLAC] vtwin88cube
Created by Ratio: 1.00vtwin88cube 11 months ago
Music : Rock : Lossless
Mötley Crüe
Dr. Feelgood (1989)
FLAC LOSSLESS Vinyl 24bit-96kHz


allmusic.com...

One of the most notorious and successful bands of the hair metal era, Los Angeles rockers Mötley Crüe burned through the '80s in a blaze of drugs, debauchery, and platinum hits. Their glammed-out image, hard-partying reputation, and a knack for melding pop hooks to heavy metal theatrics took the band to the top of the charts repeatedly throughout the '80s, records like 1985's Theatre of Pain and 1989's Dr. Feelgood bringing them to sold-out arenas around the world. Their wild lifestyles took a toll, however, and by the early '90s the band imploded, with lineup changes, legal turmoil, and a generally shaky times. They still remained one of the more beloved bands of their pop metal heyday, and the 2000s brought reunions of the original lineup, new albums, and even a biopic focusing on their infamous early years.


foobar2000 1.4.3 / Dynamic Range Meter 1.1.1
log date: 2020-10-21 18:09:53

--------------------------------------------------------------------------------
Analyzed: Mötley Crüe / Dr. Feelgood
--------------------------------------------------------------------------------

DR         Peak         RMS     Duration Track
--------------------------------------------------------------------------------
DR11      -4.91 dB   -20.48 dB      0:43 01-T. N T. (Terror 'N Tinseltown)
DR13      -1.00 dB   -14.67 dB      4:50 02-Dr. Feelgood
DR12      -1.88 dB   -16.41 dB      4:31 03-Slice Of Your Pie
DR13      -2.08 dB   -15.90 dB      3:40 04-Rattlesnake Shake
DR12      -2.25 dB   -15.76 dB      4:42 05-Kickstart My Heart
DR13      -3.54 dB   -17.50 dB      4:32 06-Without You
DR12      -1.00 dB   -14.69 dB      4:13 07-Same Ol' Situation (S.O.S.)
DR13      -1.52 dB   -15.59 dB      3:51 08-Sticky Sweet
DR13      -1.46 dB   -15.63 dB      4:37 09-She Goes Down
DR13      -1.66 dB   -15.96 dB      4:41 10-Don't Go Away Mad (Just Go Away)
DR12      -2.35 dB   -16.66 dB      4:53 11-Time For Change

Number of tracks:  11
Official DR value: DR12

Samplerate:        96000 Hz
Channels:          2
Bits per sample:   24
Bitrate:           3078 kbps
Codec:             FLAC




Support the artists...
buy it if you like it!

Thanks for Seeding!
Cheers!
Facebook Twitter Digg Reddit LinkedIn StumbleUpon Email
Show Demonoid some love with BitCoin: 1DNoidyJgB159bLJT5hDnCkZ4uQrhkfBVk How to get BitCoins?
Peers: 6 seeders, 3 leechers, 897 total - Updated: 7 months ago [ Update now ]
Size: 1.01 GB  

Sponsored links
Related torrents
Torrents you may also like:
Download this torrent
Extra information
Tracker: udp://tracker.openbittorrent.com:80/announce
Torrent hash: 4194073F 1332FAAE 2C08F52C 4B0E0053 F48E359B
Files described inside the torrent: 25 [ Click here to show the full list
Comments
No comments posted yet

Disclaimer: None of the files shown here are actually hosted or transmitted by this server. The links are provided solely by this site's users. The site moderation is also a service provided by the site's users. The administrator of this site (demonoid.is) cannot be held responsible for what its users post, or any other actions of its users. You may not use this site to distribute or download any material when you do not have the legal rights to do so. It is your own responsibility to adhere to these terms.

By using this site you indicate your agreement to our terms and conditions
   
Link to us | Contact us | API | Commemoration | Feeds/RSS | DMCA
This site and the Demonoid logo are Copyright © Demonoid. All rights reserved.

Show Demonoid some love with 1DNoidyJgB159bLJT5hDnCkZ4uQrhkfBVk