User log in
User registration
Registrations are open
Click here to register
Email: forgotten email?
Password: lost pass?
  Resend activation email
Get VPN Now for FREE! Get VPN Now for FREE! Get VPN Now for FREE! Protect your privacy! Use a VPN When Downloading Torrents
Your IP Address is . Location is .
Your Internet Provider is tracking your torrent activity! Hide your IP ADDRESS with a VPN!
We strongly recommend using Trust.Zone VPN to anonymize your torrenting. It's FREE!
Also, while you are using Tb654192rusa59b29et.m87dc82Zone VPN you get No Ads for Demonoid members Get a59b29eVPN Na59b29eow for FREd772d72Eve5b45a!
Details for MasterChef (UK) The Professionals S12E04 (1280x720p HD, 50fps, soft Eng subs)
Created by Ratio: 3.44ElsonRoa 2 years ago
TV : Reality : HD 720p : English
MasterChef (UK) The Professionals S12E04 (1280x720p HD, 50fps, soft Eng subs)


Celebrated MasterChef presenter Gregg Wallace, reputed chef Monica Galetti and Michelin-starred Marcus Wareing are together once again in their search for the UK's finest cooking talent.

In this heat, six professional chefs from across the UK put their reputations on the line. Under close scrutiny from the three judges, the chefs must face two tough challenges. First is the infamous skills test, followed by a chance to cook their own unique signature dish for the judges. At the end of this heat, three chefs will be sent home and the strongest three will go through to this week's quarter-final.

Each professional's journey begins with the dreaded skills test. This is the first time in front of the judges and not only are their knowledge, palate and experience weighed up but so is their mettle.

Monica sets the first three chefs their test - to employ some deft knife skills to spatchcock a quail before cooking it to produce quail with a rocket pesto in just 15 minutes. The judges' standards are high, so the contestants' levels of nerves will need to match them.

The remaining three chefs face a test set by Marcus. Can they sweeten the judges with their attempts at his beignets with a chocolate sauce? The chefs need to deep-fry their perfect dough or they could end up feeling battered themselves after their 15 minutes under the spotlight.

Up next, all six chefs have a chance to redeem any earlier mistakes when they cook their own signature dish for Monica, Marcus and Gregg. In one hour and 15 minutes, they must inspire the judges with their creativity, flavours and personal style. This is their opportunity to show off their culinary talent before the judges decide which three are sent home, and which three go through to this week’s quarter-final.

First broadcast: 12 November 2019
Duration: 1 hour

Torrent dead? Request reseed at torrentgalaxy.org - or ask at elsonroa at tutanota.com

Media info:-
General
Format : MPEG-4
Format profile : Base Media
Codec ID : isom (isom/iso2/avc1/mp41)
File size : 2.10 GiB
Duration : 58mn 40s
Overall bit rate : 5 135 Kbps

Video
ID : 1
Format : AVC
Format/Info : Advanced Video Codec
Format profile : [email protected]
Format settings, CABAC : Yes
Format settings, ReFrames : 4 frames
Codec ID : avc1
Codec ID/Info : Advanced Video Coding
Duration : 58mn 40s
Bit rate : 4 999 Kbps
Width : 1 280 pixels
Height : 720 pixels
Display aspect ratio : 16:9
Frame rate mode : Constant
Frame rate : 50.000 fps
Color space : YUV
Chroma subsampling : 4:2:0
Bit depth : 8 bits
Scan type : Progressive
Bits/(Pixel*Frame) : 0.108
Stream size : 2.05 GiB (97%)
Encoded date : UTC 1904-01-01 00:00:00
Tagged date : UTC 1904-01-01 00:00:00
Color range : Limited
Color primaries : BT.709
Transfer characteristics : BT.709
Matrix coefficients : BT.709

Audio
ID : 2
Format : AAC
Format/Info : Advanced Audio Codec
Format profile : LC
Codec ID : 40
Duration : 58mn 40s
Bit rate mode : Constant
Bit rate : 128 Kbps
Channel(s) : 2 channels
Channel positions : Front: L R
Sampling rate : 48.0 KHz
Frame rate : 46.875 fps (1024 spf)
Compression mode : Lossy
Stream size : 53.7 MiB (2%)

Facebook Twitter Digg Reddit LinkedIn StumbleUpon Email
Show Demonoid some love with BitCoin: 1DNoidyJgB159bLJT5hDnCkZ4uQrhkfBVk How to get BitCoins?
Peers: 0 seeders, 0 leechers, 0 total - Updated: 2 days ago
Size: 2.10 GB  

Sponsored links
Related torrents
Torrents you may also like:
Download this torrent
Extra information
Tracker: udp://tracker.leechers-paradise.org:6969/announce
Torrent hash: AC780231 0343FC76 F89DA813 47E1ECBA D7198C6E
Files described inside the torrent: 7 [ Click here to show the full list ]
Comments
No comments posted yet

Disclaimer: None of the files shown here are actually hosted or transmitted by this server. The links are provided solely by this site's users. The site moderation is also a service provided by the site's users. The administrator of this site (demonoid.is) cannot be held responsible for what its users post, or any other actions of its users. You may not use this site to distribute or download any material when you do not have the legal rights to do so. It is your own responsibility to adhere to these terms.

By using this site you indicate your agreement to our terms and conditions
   
Link to us | Contact us | API | Commemoration | Feeds/RSS | DMCA
This site and the Demonoid logo are Copyright © Demonoid. All rights reserved.

Show Demonoid some love with 1DNoidyJgB159bLJT5hDnCkZ4uQrhkfBVk