User log in
User registration
Registrations are open
Click here to register
Email: forgotten email?
Password: lost pass?
  Resend activation email
Get VPN Now for FREE! Get VPN Now for FREE! Get VPN Now for FREE! Get VPN Now for FREE! Get VPN Now for FREE! Get VPN Now for FREE! Get VPN Now for FREE! Get VPN Now for FREE! Protect your privacy! Use a VPN When Downloading Torrents
Your IP Address is . Location is .
Your Internet Provider is tracking your torrent activity! Hide your IP ADDRESS with a VPN!
We strongly recommend using Trust.Zone VPN to anonymize your torrenting. It's FREE!
Also, while you are using Tw62ff41rusc4d4193t.ld13ef0Zone VPN you get No Ads for Demonoid members Get c4d4193VPN Nc4d4193ow for FREqebf1a4Ee320cc9!
Details for MasterChef (UK) The Professionals S12E02 (1280x720p HD, 50fps, soft Eng subs)
Created by Ratio: 3.44ElsonRoa 2 years ago
TV : Reality : HD 720p : English
MasterChef (UK) The Professionals S12E02 (1280x720p HD, 50fps, soft Eng subs)

Celebrated MasterChef presenter Gregg Wallace, reputed chef Monica Galetti and Michelin-starred Marcus Wareing search for the UK’s most exciting cooking talent of 2019. Over seven weeks, 48 professional chefs face the rigours of the MasterChef kitchen before one is crowned this year’s culinary superstar.

In tonight’s heat, six professional chefs drawn from far and wide put their reputations on the line to stake their claim to the coveted title. The chefs face two daunting challenges, after which three chefs will be sent home and the strongest three will go through to this week’s quarter-final.

Each chef has to face the dreaded skills test. Under the scrutiny of all three judges, the initial moments for any competitor are nerve-wracking, as their knowledge, palate and experience are weighed up in this infamous first assessment.

Tonight, the first three chefs take on the terrifying prospect of tackling Marcus’s crab omelette arnold bennett - they have 20 minutes to either hold their nerve or find themselves in a terrible scramble.

The next three chefs have to dig into their pastry repertoire when Monica asks them to create a puff pastry and vanilla mousseline layered dessert. A steady hand and a sweet tooth are a bonus to succeed in this tricky test.

In the second round it is now down to all six chefs to wow the judges with a dish of their own design. They have a chance to save face and turn their fortunes around when they cook their own signature dish for Monica, Marcus and Gregg. In an hour and 15 minutes, they must inspire the judges with their flair, skill and personal style. It is their chance to show off their culinary talent before the judges decide which three are sent home and which three go through to this week’s quarter-final.

First broadcast:  6 November 2019
Duration:  1 hour  

Torrent dead? Request reseed at torrentgalaxy.org - or ask at elsonroa at tutanota.com



Media info:
Format profile : Base Media
Codec ID : isom (isom/iso2/avc1/mp41)
File size : 2.13 GiB
Duration : 58mn 59s
Overall bit rate : 5 160 Kbps

Video
ID : 1
Format : AVC
Format/Info : Advanced Video Codec
Format profile : [email protected]
Format settings, CABAC : Yes
Format settings, ReFrames : 4 frames
Codec ID : avc1
Codec ID/Info : Advanced Video Coding
Duration : 58mn 59s
Bit rate : 5 024 Kbps
Width : 1 280 pixels
Height : 720 pixels
Display aspect ratio : 16:9
Frame rate mode : Constant
Frame rate : 50.000 fps
Color space : YUV
Chroma subsampling : 4:2:0
Bit depth : 8 bits
Scan type : Progressive
Bits/(Pixel*Frame) : 0.109
Stream size : 2.07 GiB (97%)
Encoded date : UTC 1904-01-01 00:00:00
Tagged date : UTC 1904-01-01 00:00:00
Color range : Limited
Color primaries : BT.709
Transfer characteristics : BT.709
Matrix coefficients : BT.709

Audio
ID : 2
Format : AAC
Format/Info : Advanced Audio Codec
Format profile : LC
Codec ID : 40
Duration : 58mn 59s
Bit rate mode : Constant
Bit rate : 128 Kbps
Channel(s) : 2 channels
Channel positions : Front: L R
Sampling rate : 48.0 KHz
Frame rate : 46.875 fps (1024 spf)
Compression mode : Lossy
Stream size : 54.0 MiB (2%)
Language : English
Facebook Twitter Digg Reddit LinkedIn StumbleUpon Email
Show Demonoid some love with BitCoin: 1DNoidyJgB159bLJT5hDnCkZ4uQrhkfBVk How to get BitCoins?
Peers: 0 seeders, 0 leechers, 0 total - Updated: 10 months ago
Size: 2.13 GB  

Sponsored links
Related torrents
Torrents you may also like:
Download this torrent
Extra information
Tracker: udp://tracker.leechers-paradise.org:6969/announce
Torrent hash: 1362868C 442E572F A07A2FE0 A969BC9C 7D864B57
Files described inside the torrent: 8 [ Click here to show the full list ]
Comments
No comments posted yet

Disclaimer: None of the files shown here are actually hosted or transmitted by this server. The links are provided solely by this site's users. The site moderation is also a service provided by the site's users. The administrator of this site (demonoid.is) cannot be held responsible for what its users post, or any other actions of its users. You may not use this site to distribute or download any material when you do not have the legal rights to do so. It is your own responsibility to adhere to these terms.

By using this site you indicate your agreement to our terms and conditions
   
Link to us | Contact us | API | Commemoration | Feeds/RSS | DMCA
This site and the Demonoid logo are Copyright © Demonoid. All rights reserved.

Show Demonoid some love with 1DNoidyJgB159bLJT5hDnCkZ4uQrhkfBVk