User log in
User registration
Registrations are open
Click here to register
Email: forgotten email?
Password: lost pass?
  Resend activation email
Get VPN Now for FREE! Get VPN Now for FREE! Get VPN Now for FREE! Protect your privacy! Use a VPN When Downloading Torrents
Your IP Address is . Location is .
Your Internet Provider is tracking your torrent activity! Hide your IP ADDRESS with a VPN!
We strongly recommend using Trust.Zone VPN to anonymize your torrenting!
Also, while you are using Trmb0796aust.tba79c0Zone VPN you get No Ads on Demonoid site Get tba79c0VPN Ntba79c0ow!
Details for Fleabag (2016-2019) Season 01-02 [1080p BDRip x264 [S01 Lektor PL / S02 Napisy PL] [elladajarek]
Created by Ratio: 0.01elladajarek 2 years ago 0   0
TV : Comedy : HD 1080p / 1080i : English
51TjE3dGUmL._AC_.jpg


Produkcja: Wielka Brytania
Gatunek: Komedia, Dramat
Twórca: Phoebe Waller-Bridge
Stacja TV: BBC Three
Premiera: 21 lipca 2016

Fleabag – brytyjski serial telewizyjny wyprodukowany przez Two Brothers Pictures, którego twórcą jest Phoebe Waller-Bridge. Serial był emitowany od 21 lipca 2016 roku do 8 kwietnia 2019 roku przez BBC Three. W Polsce serial jest dostępny na platformie Amazon Prime Video.

Obsada:

Phoebe Waller-Bridge jako Fleabag
Sian Clifford jako Claire
Olivia Colman jako matka chrzestna Fleabag
Bill Paterson jako ojciec Fleabag
Brett Gelman jako Martin
Hugh Skinner jako Harry
Hugh Dennis jako kierownik banku
Ben Aldridge
Jamie Demetriou as Bus Rodent (sezon 1)
Jenny Rainsford jako Boo
Angus Imrie jako Jake
Andrew Scott jako ksiÄ…dz (sezon 2)
Fiona Shaw jako doradca (sezon 2)
Kristin Scott Thomas jako Belinda (sezon 2)
Christian Hillborg jako Klare (sezon 2)
Ray Fearon jako mizogin (sezon 2)
Jo Martin jako Pam (sezon 2)

Dane techniczne:

Format : Matroska
Format version : Version 4
File size : 2.23 GiB
Duration : 26 min 6 s
Overall bit rate : 12.2 Mb/s
Writing application : mkvmerge v38.0.0 ('The Silent Type') 64-bit
Writing library : libebml v1.3.9 + libmatroska v1.5.2

Video
ID : 1
Format : AVC
Format/Info : Advanced Video Codec
Format profile : [email protected]
Format settings : CABAC / 5 Ref Frames
Format settings, CABAC : Yes
Format settings, Reference fra : 5 frames
Codec ID : V_MPEG4/ISO/AVC
Duration : 26 min 5 s
Bit rate : 10.5 Mb/s
Width : 1 920 pixels
Height : 808 pixels
Display aspect ratio : 2.40:1
Frame rate mode : Constant
Frame rate : 25.000 FPS
Color space : YUV
Chroma subsampling : 4:2:0
Bit depth : 8 bits
Scan type : Progressive
Bits/(Pixel*Frame) : 0.270
Stream size : 1.91 GiB (86%)
Writing library : x264
Default : Yes
Forced : No

Audio #1
ID : 2
Format : AC-3
Format/Info : Audio Coding 3
Commercial name : Dolby Digital
Codec ID : A_AC3
Duration : 26 min 3 s
Bit rate mode : Constant
Bit rate : 256 kb/s
Channel(s) : 2 channels
Channel layout : L R
Sampling rate : 48.0 kHz
Frame rate : 31.250 FPS (1536 SPF)
Bit depth : 16 bits
Compression mode : Lossy
Stream size : 47.7 MiB (2%)
Language : Polish
Service kind : Complete Main
Default : Yes
Forced : No

Audio #2
ID : 3
Format : DTS
Format/Info : Digital Theater Systems
Codec ID : A_DTS
Duration : 26 min 6 s
Bit rate mode : Constant
Bit rate : 1 509 kb/s
Channel(s) : 2 channels
Channel layout : Lt Rt
Sampling rate : 48.0 kHz
Frame rate : 93.750 FPS (512 SPF)
Bit depth : 24 bits
Compression mode : Lossy
Stream size : 282 MiB (12%)
Language : English
Default : No
Forced : No

Text
ID : 4
Format : UTF-8
Codec ID : S_TEXT/UTF8
Codec ID/Info : UTF-8 Plain Text
Duration : 24 min 28 s
Bit rate : 61 b/s
Count of elements : 367
Stream size : 11.0 KiB (0%)
Language : Polish
Default : Yes
Forced : No

Menu
00:00:00.000 : en:00:00:00.000
00:06:55.200 : en:00:06:55.200
00:13:48.200 : en:00:13:48.200
00:21:27.240 : en:00:21:27.240
Facebook Twitter Digg Reddit LinkedIn StumbleUpon Email
Show Demonoid some love with BitCoin: 1DNoidyJgB159bLJT5hDnCkZ4uQrhkfBVk How to get BitCoins?
Peers: 0 seeders, 0 leechers, 19 total - Updated: 2084 hours 23 minutes 59 seconds ago
Size: 24.98 GB  

Sponsored links
Related torrents
Torrents you may also like:
Download this torrent
Extra information
Tracker: udp://tracker.leechers-paradise.org:6969/announce
Torrent hash: 8FAAD610 B9D33CC6 2926A4C8 7ACAF0BC C7939F8E
Files described inside the torrent: 21 [ Click here to show the full list ]
Comments
No comments posted yet

Disclaimer: None of the files shown here are actually hosted or transmitted by this server. The links are provided solely by this site's users. The site moderation is also a service provided by the site's users. The administrator of this site (demonoid.is) cannot be held responsible for what its users post, or any other actions of its users. You may not use this site to distribute or download any material when you do not have the legal rights to do so. It is your own responsibility to adhere to these terms.

By using this site you indicate your agreement to our terms and conditions
   
Link to us | Contact us | API | Feeds/RSS | DMCA
This site and the Demonoid logo are Copyright © Demonoid. All rights reserved.

Show Demonoid some love with 1DNoidyJgB159bLJT5hDnCkZ4uQrhkfBVk