User log in
User registration
Registrations are open
Click here to register
Email: forgotten email?
Password: lost pass?
  Resend activation email
Get VPN Now for FREE! Get VPN Now for FREE! Get VPN Now for FREE! Get VPN Now for FREE! Get VPN Now for FREE! Get VPN Now for FREE! Protect your privacy! Use a VPN When Downloading Torrents
Your IP Address is . Location is .
Your Internet Provider is tracking your torrent activity! Hide your IP ADDRESS with a VPN!
We strongly recommend using Trust.Zone VPN to anonymize your torrenting. It's FREE!
Also, while you are using Tv5a7e8crust36051ct.ne439f5Zone VPN you get No Ads for Demonoid members Get t36051cVPN Nt36051cow for FREt64e9a3Ec6fc855!
Details for Money Heist (2020) English S04 (Ep01- 08) 720p NF WEB-DL x264 AAC ESub 2.6GB [HDWebMovies]
Created by Ratio: 2.73Suryadipta 2 years ago
TV : Action : HD 720p : English

Visit Our Site https://hdwebmovies.pw




Movie name :

Money Heist (2020) English S04 (Ep01-08) 720p NF WEB-DL x264 AAC ESub 2.6GB [HDWebMovies]


General
Format : Matroska
Format version : Version 4
File size : 2.65 GiB
Duration : 6 h 33 min
Overall bit rate : 965 kb/s
Encoded date : UTC 2020-04-03 09:16:46
Writing application : mkvmerge v44.0.0 ('Domino') 64-bit
Writing library : libebml v1.3.10 + libmatroska v1.5.2 / Lavf58.29.100

Video
ID : 1
Format : AVC
Format/Info : Advanced Video Codec
Format profile : [email protected]
Format settings : CABAC / 4 Ref Frames
Format settings, CABAC : Yes
Format settings, Reference frames : 4 frames
Codec ID : V_MPEG4/ISO/AVC
Duration : 6 h 33 min
Bit rate : 900 kb/s
Width : 1 274 pixels
Height : 720 pixels
Display aspect ratio : 16:9
Frame rate mode : Variable
Frame rate : 24.000 FPS
Color space : YUV
Chroma subsampling : 4:2:0
Bit depth : 8 bits
Scan type : Progressive
Bits/(Pixel*Frame) : 0.041
Stream size : 2.38 GiB (90%)
Writing library : x264 core 152 r2854 e9a5903
Default : Yes
Forced : No

Audio
ID : 2
Format : AAC LC
Format/Info : Advanced Audio Codec Low Complexity
Codec ID : A_AAC-2
Duration : 6 h 33 min
Bit rate : 96.0 kb/s
Channel(s) : 1 channel
Channel layout : C
Sampling rate : 44.1 kHz
Frame rate : 43.066 FPS (1024 SPF)
Compression mode : Lossy
Stream size : 271 MiB (10%)
Title : English
Writing library : Lavc58.54.100 libfdk_aac
Language : English
Default : Yes
Forced : No

Text
ID : 3
Format : ASS
Codec ID : S_TEXT/ASS
Codec ID/Info : Advanced Sub Station Alpha
Duration : 6 h 30 min
Bit rate : 95 b/s
Count of elements : 4882
Compression mode : Lossless
Stream size : 272 KiB (0%)
Title : English
Writing library : Lavc58.54.100 ssa
Language : English
Default : No
Forced : No











Facebook Twitter Digg Reddit LinkedIn StumbleUpon Email
Show Demonoid some love with BitCoin: 1DNoidyJgB159bLJT5hDnCkZ4uQrhkfBVk How to get BitCoins?
Peers: 6 seeders, 2 leechers, 308 total - Updated: 9 months ago [ Update now ]
Size: 2.65 GB  

Sponsored links
Related torrents
Torrents you may also like:
Download this torrent
Extra information
Tracker: http://tracker.nyap2p.com:8080/announce
Torrent hash: 975BBF6A 3D156EA3 BDEF0D21 A2841BB3 2A8AA6A1
Files described inside the torrent: 1 [ Click here to show the full list ]
Comments
No comments posted yet

Disclaimer: None of the files shown here are actually hosted or transmitted by this server. The links are provided solely by this site's users. The site moderation is also a service provided by the site's users. The administrator of this site (demonoid.is) cannot be held responsible for what its users post, or any other actions of its users. You may not use this site to distribute or download any material when you do not have the legal rights to do so. It is your own responsibility to adhere to these terms.

By using this site you indicate your agreement to our terms and conditions
   
Link to us | Contact us | API | Commemoration | Feeds/RSS | DMCA
This site and the Demonoid logo are Copyright © Demonoid. All rights reserved.

Show Demonoid some love with 1DNoidyJgB159bLJT5hDnCkZ4uQrhkfBVk