User log in
User registration
Registrations are open
Click here to register
Email: forgotten email?
Password: lost pass?
  Resend activation email
Protect your privacy! Use a VPN When Downloading Torrents
Your IP Address is . Location is .
Your Internet Provider is tracking your torrent activity! Hide your IP ADDRESS with a VPN!
We strongly recommend using NORD VPN to anonymize your torrenting.
Also, while you are using NORD you get No Ads for Demonoid members Get VPN Now!
Details for Lone Wolf And Cub: Sword Of Vengeance Part 1 (1972) [1080p BDRip x264] [Japanese / Napisy PL]
Created by Ratio: 1.00elladajarek 10 months ago[ Add to bookmark ]
Movies : Action : HD 1080p / 1080i : Japanese



Reżyseria...Kenji Misumi
Scenariusz...Kazuo Koike
Gatunek...Dramat / Akcja
Produkcja...Japonia
Premiera...kwiecień 1972 (świat)

Oficjalny kat szogunatu, Itto Ogami (Tomisaburô Wakayama), zostaje zdradzony przez swojego pana, który nakazuje zamordować jego rodzinę. Mistrz miecza ucieka jednak wraz ze swym małym synkiem Daigoro (Akihiro Tomikawa) i poprzysięga krwawą zemstę zdrajcom, czyli rodzinie Yagyu.

Obsada:

Tomisaburô Wakayama...Ogami Itto

Shigeru Tsuyuguchi...Matsuki Junai

Fumio Watanabe...Sugito

Taketoshi Naitô...Inspektor Yagyu Bizen-no-Kami

Tomoko Mayama...Osen

Yoshi Katô...Danjô Tonami

Tomoo Uchida...Goto

Reiko Kasahara...Azami

Akihiro Tomikawa...Daigoro

Tokio Oki...Yagyu Retsudo

Yûnosuke Itô...Ichige Gyobu

Dane techniczne:

Format : Matroska
Format version : Version 4
File size : 1.39 GiB
Duration : 1 h 23 min
Overall bit rate : 2 380 kb/s
Writing application : mkvmerge v43.0.0 ('The Quartermaster') 64-bit
Writing library : libebml v1.3.10 + libmatroska v1.5.2

Video
ID : 1
Format : AVC
Format/Info : Advanced Video Codec
Format profile : [email protected]
Format settings : CABAC / 4 Ref Frames
Format settings, CABAC : Yes
Format settings, Reference fra : 4 frames
Codec ID : V_MPEG4/ISO/AVC
Duration : 1 h 23 min
Bit rate : 2 250 kb/s
Width : 1 920 pixels
Height : 800 pixels
Display aspect ratio : 2.40:1
Frame rate mode : Constant
Frame rate : 23.976 (24000/1001) FPS
Color space : YUV
Chroma subsampling : 4:2:0
Bit depth : 8 bits
Scan type : Progressive
Bits/(Pixel*Frame) : 0.061
Stream size : 1.32 GiB (95%)
Writing library : x264
Language : English
Default : Yes
Forced : No

Audio
ID : 2
Format : AAC LC
Format/Info : Advanced Audio Codec Low Complexity
Codec ID : A_AAC-2
Duration : 1 h 23 min
Bit rate : 128 kb/s
Channel(s) : 2 channels
Channel layout : L R
Sampling rate : 48.0 kHz
Frame rate : 46.875 FPS (1024 SPF)
Compression mode : Lossy
Delay relative to video : -21 ms
Stream size : 76.6 MiB (5%)
Language : Japanese
Default : Yes
Forced : No

Text #1
ID : 3
Format : UTF-8
Codec ID : S_TEXT/UTF8
Codec ID/Info : UTF-8 Plain Text
Duration : 1 h 21 min
Bit rate : 34 b/s
Count of elements : 559
Stream size : 20.4 KiB (0%)
Language : Polish
Default : Yes
Forced : No

Text #2
ID : 4
Format : UTF-8
Codec ID : S_TEXT/UTF8
Codec ID/Info : UTF-8 Plain Text
Duration : 1 h 23 min
Bit rate : 41 b/s
Count of elements : 786
Stream size : 25.3 KiB (0%)
Language : English
Default : No
Forced : No
Facebook Twitter Digg Reddit LinkedIn StumbleUpon Email
Show Demonoid some love with BitCoin: 1DNoidyJgB159bLJT5hDnCkZ4uQrhkfBVk How to get BitCoins?
Peers: 0 seeders, 0 leechers, 0 total - Updated: 2 months ago [ Update now ]
Size: 1.39 GB 

Sponsored links
Related torrents
Torrents you may also like:
Download this torrent
Extra information
Tracker: udp://tracker.cyberia.is:6969/announce
Torrent hash: 2A2AC76A 79DA1C97 F3CCDA94 2EDFB05E 3CE7AEE0
Files described inside the torrent: 4 [ Click here to show the full list ]
Comments
No comments posted yet

Disclaimer: None of the files shown here are actually hosted or transmitted by this server. The links are provided solely by this site's users. The site moderation is also a service provided by the site's users. The administrator of this site (demonoid.is) cannot be held responsible for what its users post, or any other actions of its users. You may not use this site to distribute or download any material when you do not have the legal rights to do so. It is your own responsibility to adhere to these terms.

By using this site you indicate your agreement to our terms and conditions
   
Link to us | Contact us | API | Commemoration | Twitter: @DemonoidBT | Feeds/RSS | DMCA
This site and the Demonoid logo are Copyright © Demonoid. All rights reserved.

Show Demonoid some love with 1DNoidyJgB159bLJT5hDnCkZ4uQrhkfBVk