User log in
User registration
Registrations are closed. If you have an invitation code, click here, or join our twitter, we post invites often there.
Email: forgotten email?
Password: lost pass?
  Resend activation email
Protect your privacy! Use a VPN When Downloading Torrents
Your IP Address is . Location is .
Your Internet Provider is tracking your torrent activity! Hide your IP ADDRESS with a VPN!
We strongly recommend using NORD VPN to anonymize your torrenting.
Also, while you are using NORD you get No Ads for Demonoid members Get VPN Now!
Details for The Man who killed Don Quixote(2019)Mp-4 X264 1080p AAC[DaScubaDude]
Created by Ratio: 1.00DaScubaDude 2 years ago[ Add to bookmark ]
Movies : Comedy : English

IMDb Info for this Film
Trailer

General
Complete name                            : THE_MAN_WHO_KILLED_DON_QUIXOTE.Title1.mp4
Format                                  : MPEG-4
Format profile                          : Base Media / Version 2
Codec ID                                : mp42 (mp42/isom/avc1)
File size                                : 2.10 GiB
Duration                                : 2 h 12 min
Overall bit rate mode                    : Variable
Overall bit rate                        : 2 265 kb/s
Movie name                              : THE_MAN_WHO_KILLED_DON_QUIXOTE.Title1
Album                                    : THE_MAN_WHO_KILLED_DON_QUIXOTE
Encoded date                            : UTC 2019-07-23 20:12:34
Tagged date                              : UTC 2019-07-23 21:26:14
Writing application                      : DVDFab 11.0.3.9
Cover                                    : Yes

Video
ID                                      : 1
Format                                  : AVC
Format/Info                              : Advanced Video Codec
Format profile                          : [email protected]
Format settings                          : CABAC / 2 Ref Frames
Format settings, CABAC                  : Yes
Format settings, RefFrames              : 2 frames
Format settings, GOP                    : M=1, N=24
Codec ID                                : avc1
Codec ID/Info                            : Advanced Video Coding
Duration                                : 2 h 12 min
Bit rate mode                            : Variable
Bit rate                                : 1 797 kb/s
Maximum bit rate                        : 2 790 kb/s
Width                                    : 1 920 pixels
Height                                  : 808 pixels
Display aspect ratio                    : 2.40:1
Frame rate mode                          : Constant
Frame rate                              : 23.976 (24000/1001) FPS
Color space                              : YUV
Chroma subsampling                      : 4:2:0
Bit depth                                : 8 bits
Scan type                                : Progressive
Bits/(Pixel*Frame)                      : 0.048
Stream size                              : 1.67 GiB (79%)
Encoded date                            : UTC 2019-07-23 20:12:34
Tagged date                              : UTC 2019-07-23 21:26:14
Color primaries                          : BT.709
Transfer characteristics                : BT.709
Matrix coefficients                      : BT.709
Menus                                    : 5

Audio
ID                                      : 2
Format                                  : AAC
Format/Info                              : Advanced Audio Codec
Format profile                          : LC
Codec ID                                : mp4a-40-2
Duration                                : 2 h 12 min
Bit rate mode                            : Variable
Bit rate                                : 448 kb/s
Maximum bit rate                        : 453 kb/s
Channel(s)                              : 6 channels
Channel positions                        : Front: L C R, Side: L R, LFE
Sampling rate                            : 48.0 kHz
Frame rate                              : 46.875 FPS (1024 SPF)
Compression mode                        : Lossy
Stream size                              : 426 MiB (20%)
Title                                    : English (aac 5.1)
Language                                : English
Default                                  : Yes
Alternate group                          : 1
Encoded date                            : UTC 2019-07-23 20:12:34
Tagged date                              : UTC 2019-07-23 21:26:14

Text #1
ID                                      : 3
Format                                  : VobSub
Codec ID                                : mp4s-E0
Codec ID/Info                            : The same subtitle format used on DVDs
Duration                                : 2 h 7 min
Bit rate mode                            : Variable
Bit rate                                : 9 680 b/s
Maximum bit rate                        : 4 249 Mb/s
Stream size                              : 8.85 MiB (0%)
Language                                : English
Default                                  : Yes
Forced                                  : No
Alternate group                          : 2
Encoded date                            : UTC 2019-07-23 20:12:34
Tagged date                              : UTC 2019-07-23 21:24:32
Facebook Twitter Digg Reddit LinkedIn StumbleUpon Email
Show Demonoid some love with BitCoin: 1DNoidyJgB159bLJT5hDnCkZ4uQrhkfBVk How to get BitCoins?
Peers: 0 seeders, 0 leechers, 0 total - Updated: 1 month ago [ Update now ]
Size: 2.10 GB 

Sponsored links
Related torrents
Torrents you may also like:
Download this torrent
Extra information
Tracker: udp://tracker.openbittorrent.com:80/announce
Torrent hash: EF5CA6A8 115F34DD 1CA914F5 1FE35DDE 27A5BE1A
Files described inside the torrent: 6 [ Click here to show the full list ]
Comments
No comments posted yet

Disclaimer: None of the files shown here are actually hosted or transmitted by this server. The links are provided solely by this site's users. The site moderation is also a service provided by the site's users. The administrator of this site (demonoid.is) cannot be held responsible for what its users post, or any other actions of its users. You may not use this site to distribute or download any material when you do not have the legal rights to do so. It is your own responsibility to adhere to these terms.

By using this site you indicate your agreement to our terms and conditions
   
Link to us | Contact us | API | Commemoration | Twitter: @DemonoidBT | Feeds/RSS | DMCA
This site and the Demonoid logo are Copyright © Demonoid. All rights reserved.

Show Demonoid some love with 1DNoidyJgB159bLJT5hDnCkZ4uQrhkfBVk