User log in
User registration
Registrations are closed. If you have an invitation code, click here, or join our twitter, we post invites often there.
Email: forgotten email?
Password: lost pass?
  Resend activation email
Protect your privacy! Use a VPN When Downloading Torrents
Your IP Address is . Location is .
Your Internet Provider is tracking your torrent activity! Hide your IP ADDRESS with a VPN!
We strongly recommend using NORD VPN to anonymize your torrenting.
Also, while you are using NORD you get No Ads for Demonoid members Get VPN Now!
Details for Star Wars: Episode VII - The Force Awakens (2015)Mp-4 X264 1080p AAC[DSD]
Created by Ratio: 1.00DaScubaDude 11 months ago[ Add to bookmark ]
Movies : Sci-Fi : Blu-ray Rip : English

Seedboxed!!



Star Wars: Episode VII - The Force Awakens (2015)
1080p Blu-Ray Rip
Hash Code:
0191346A86B487805E699DC6A3FE5F3E2D52246A

[youtube]https://www.youtube.com/watch?v=sGbxmsDFVnE[/youtube]








Tap on image for IMDb Info for this film

General
Complete name                            : Star Wars- The Force Awakens.theatrical.mp4
Format                                  : MPEG-4
Format profile                          : Base Media / Version 2
Codec ID                                : mp42 (mp42/isom/avc1)
File size                                : 2.18 GiB
Duration                                : 2 h 18 min
Overall bit rate mode                    : Variable
Overall bit rate                        : 2 263 kb/s
Movie name                              : Star Wars: The Force Awakens
Performer                                : J.J. Abrams
Performer/Sorted by                      : J.J. Abrams
Genre                                    : Action & Adventure & Science Fiction & Fantasy
Description                              : Thirty years after defeating the Galactic Empire, Han Solo and his allies face a new threat from the evil Kylo Ren and his army of Stormtroopers.
Recorded date                            : 2015
Encoded date                            : UTC 2020-02-26 22:30:32
Tagged date                              : UTC 2020-02-26 23:28:58
Writing application                      : DVDFab 11.0.7.5
Cover                                    : Yes
Title/Sort                              : Star Wars: The Force Awakens
LongDescription                          : Thirty years after defeating the Galactic Empire, Han Solo and his allies face a new threat from the evil Kylo Ren and his army of Stormtroopers.

Video
ID                                      : 1
Format                                  : AVC
Format/Info                              : Advanced Video Codec
Format profile                          : [email protected]
Format settings                          : CABAC / 2 Ref Frames
Format settings, CABAC                  : Yes
Format settings, RefFrames              : 2 frames
Format settings, GOP                    : M=1, N=24
Codec ID                                : avc1
Codec ID/Info                            : Advanced Video Coding
Duration                                : 2 h 18 min
Bit rate mode                            : Variable
Bit rate                                : 1 803 kb/s
Maximum bit rate                        : 2 763 kb/s
Width                                    : 1 920 pixels
Height                                  : 800 pixels
Display aspect ratio                    : 2.40:1
Frame rate mode                          : Constant
Frame rate                              : 23.976 (24000/1001) FPS
Color space                              : YUV
Chroma subsampling                      : 4:2:0
Bit depth                                : 8 bits
Scan type                                : Progressive
Bits/(Pixel*Frame)                      : 0.049
Stream size                              : 1.74 GiB (80%)
Encoded date                            : UTC 2020-02-26 22:30:32
Tagged date                              : UTC 2020-02-26 23:28:58
Color primaries                          : BT.709
Transfer characteristics                : BT.709
Matrix coefficients                      : BT.709
Menus                                    : 4

Audio
ID                                      : 2
Format                                  : AAC
Format/Info                              : Advanced Audio Codec
Format profile                          : LC
Codec ID                                : mp4a-40-2
Duration                                : 2 h 18 min
Bit rate mode                            : Variable
Bit rate                                : 452 kb/s
Channel(s)                              : 6 channels
Channel positions                        : Front: L C R, Side: L R, LFE
Sampling rate                            : 48.0 kHz
Frame rate                              : 46.875 FPS (1024 SPF)
Compression mode                        : Lossy
Stream size                              : 443 MiB (20%)
Title                                    : English (aac 5.1)
Language                                : English
Default                                  : Yes
Alternate group                          : 1
Encoded date                            : UTC 2020-02-26 22:30:32
Tagged date                              : UTC 2020-02-26 23:28:58

Text
ID                                      : 3
Format                                  : VobSub
Codec ID                                : mp4s-E0
Codec ID/Info                            : The same subtitle format used on DVDs
Duration                                : 2 h 7 min
Bit rate mode                            : Variable
Bit rate                                : 8 592 b/s
Maximum bit rate                        : 4 249 Mb/s
Stream size                              : 7.81 MiB (0%)
Language                                : English
Default                                  : Yes
Forced                                  : No
Alternate group                          : 2
Encoded date                            : UTC 2020-02-26 22:30:32
Tagged date                              : UTC 2020-02-26 23:24:50


B)
Facebook Twitter Digg Reddit LinkedIn StumbleUpon Email
Show Demonoid some love with BitCoin: 1DNoidyJgB159bLJT5hDnCkZ4uQrhkfBVk How to get BitCoins?
Peers: 1 seeders, 0 leechers, 115 total - Updated: 12 days ago [ Update now ]
Size: 2.18 GB 

Sponsored links
Related torrents
Torrents you may also like:
Download this torrent
Extra information
Tracker: udp://tracker.openbittorrent.com:80/announce
Torrent hash: 0191346A 86B48780 5E699DC6 A3FE5F3E 2D52246A
Files described inside the torrent: 1 [ Click here to show the full list ]
Comments
No comments posted yet

Disclaimer: None of the files shown here are actually hosted or transmitted by this server. The links are provided solely by this site's users. The site moderation is also a service provided by the site's users. The administrator of this site (demonoid.is) cannot be held responsible for what its users post, or any other actions of its users. You may not use this site to distribute or download any material when you do not have the legal rights to do so. It is your own responsibility to adhere to these terms.

By using this site you indicate your agreement to our terms and conditions
   
Link to us | Contact us | API | Commemoration | Twitter: @DemonoidBT | Feeds/RSS | DMCA
This site and the Demonoid logo are Copyright © Demonoid. All rights reserved.

Show Demonoid some love with 1DNoidyJgB159bLJT5hDnCkZ4uQrhkfBVk