User log in
User registration
Registrations are open
Click here to register
Email: forgotten email?
Password: lost pass?
  Resend activation email
Get VPN Now for FREE! Get VPN Now for FREE! Get VPN Now for FREE! Get VPN Now for FREE! Get VPN Now for FREE! Get VPN Now for FREE! Get VPN Now for FREE! Get VPN Now for FREE! Get VPN Now for FREE! Get VPN Now for FREE! Get VPN Now for FREE! Get VPN Now for FREE! Get VPN Now for FREE! Get VPN Now for FREE! Protect your privacy! Use a VPN When Downloading Torrents
Your IP Address is . Location is .
Your Internet Provider is tracking your torrent activity! Hide your IP ADDRESS with a VPN!
We strongly recommend using Trust.Zone VPN to anonymize your torrenting. It's FREE!
Also, while you are using Trust.Zone VPN you get No Ads for Demonoid members Get VPN Now for FREE!
Details for Cold Feet S09 1080P RB58
Created by Ratio: 1.00RedBaron58 2 years ago
TV : Comedy : HD 1080p / 1080i : English
Cold Feet S09 1080P x264 mp4

https://www.imdb.com/title/tt0168596/

Thank you for your kind comments and feedback on my other torrents, your feedback is welcome.

About the Series:
Adam finds himself in hot water at work, while his relationship with Karen continues to
affect the group. Jenny's finished her cancer treatment, but her struggle is far from over.
David begins to see Mary in a new light.
Starring James Nesbitt, Hermione Norris, Robert Bathurst and John Thomson.

I hope you enjoy.





Technical:

General
Complete name                            : I:\Cold Feet S09\Cold Feet S09E01 1080P x264 RB58.mp4
Format                                   : MPEG-4
Format profile                           : Base Media
Codec ID                                 : isom
File size                                : 1 014 MiB
Duration                                 : 45mn 7s
Overall bit rate mode                    : Variable
Overall bit rate                         : 3 142 Kbps
Writing application                      : VideoReDo (Lavf57.71.100)

Video
ID                                       : 1
Format                                   : AVC
Format/Info                              : Advanced Video Codec
Format profile                           : [email protected]
Format settings, CABAC                   : Yes
Format settings, ReFrames                : 4 frames
Codec ID                                 : avc1
Codec ID/Info                            : Advanced Video Coding
Duration                                 : 45mn 7s
Bit rate                                 : 3 000 Kbps
Width                                    : 1 920 pixels
Height                                   : 1 080 pixels
Display aspect ratio                     : 16:9
Frame rate mode                          : Constant
Frame rate                               : 25.000 fps
Color space                              : YUV
Chroma subsampling                       : 4:2:0
Bit depth                                : 8 bits
Scan type                                : MBAFF
Scan order                               : Top Field First
Bits/(Pixel*Frame)                       : 0.058
Stream size                              : 969 MiB (96%)
Writing library                          : x264 core 152 r2245
Encoding settings                        : cabac=1 / ref=2 / deblock=1:0:0

Audio
ID                                       : 2
Format                                   : AAC
Format/Info                              : Advanced Audio Codec
Format profile                           : LC
Codec ID                                 : 40
Duration                                 : 45mn 7s
Duration_LastFrame                       : -21ms
Bit rate mode                            : Variable
Bit rate                                 : 125 Kbps
Maximum bit rate                         : 128 Kbps
Channel(s)                               : 2 channels
Channel positions                        : Front: L R
Sampling rate                            : 48.0 KHz
Compression mode                         : Lossy
Stream size                              : 40.5 MiB (4%)
Language                                 : English
Facebook Twitter Digg Reddit LinkedIn StumbleUpon Email
Show Demonoid some love with BitCoin: 1DNoidyJgB159bLJT5hDnCkZ4uQrhkfBVk How to get BitCoins?
Peers: 5 seeders, 1 leechers, 37 total - Updated: 11 months ago [ Update now ]
Size: 5.97 GB  

Sponsored links
Related torrents
Torrents you may also like:
Download this torrent
Extra information
Tracker: udp://tracker.coppersurfer.tk:6969/announce
Torrent hash: 7555D7CB 6AE0ABBC 4399CD19 70E830F2 E4B5EA89
Files described inside the torrent: 9 [ Click here to show the full list
Comments
No comments posted yet

Disclaimer: None of the files shown here are actually hosted or transmitted by this server. The links are provided solely by this site's users. The site moderation is also a service provided by the site's users. The administrator of this site (demonoid.is) cannot be held responsible for what its users post, or any other actions of its users. You may not use this site to distribute or download any material when you do not have the legal rights to do so. It is your own responsibility to adhere to these terms.

By using this site you indicate your agreement to our terms and conditions
   
Link to us | Contact us | API | Commemoration | Feeds/RSS | DMCA
This site and the Demonoid logo are Copyright © Demonoid. All rights reserved.

Show Demonoid some love with 1DNoidyJgB159bLJT5hDnCkZ4uQrhkfBVk