Please help the site by white listing it in your Ad-Blocker.


User log in
User registration
Registrations are closed. If you have an invitation code, click here, or join our twitter, we post invites often there.
Email: forgotten email?
Password: lost pass?
  Resend activation email
Protect your privacy! Use a VPN When Downloading Torrents
Your IP Address is . Location is .
Your Internet Provider is tracking your torrent activity! Hide your IP ADDRESS with a VPN!
We strongly recommend using NORD VPN to anonymize your torrenting.
Also, while you are using NORD you get No Ads for Demonoid members Get VPN Now!
Details for Wonder Woman 1984 (2020) IMAX 1080p WEBRip HEVC x265 English AC3 5.1 - MeGUiL
Created by Ratio: 1.00meguil 2 months ago[ Add to bookmark ]
Movies : Action : HEVC / x265 : English


Release Title
Wonder Woman 1984 (2020) IMAX 1080p WEBRip HEVC x265 English AC3 5.1 - MeGUiL

IMDB Link
https://www.imdb.com/title/tt7126948/

IMDb Rating
5.5/10 (110,769 user)

Screens:
Click to enlarge
















[size=12]Media Info
General
Format                                  : Matroska
Format version                          : Version 4
File size                                : 2.52 GiB
Duration                                : 2 h 31 min
Overall bit rate                        : 2 386 kb/s
Movie name                              : Wonder Woman 1984 (2020) IMAX 1080p WEBRip x265 English AC3 5.1 - MeGUiL
Encoded date                            : UTC 2021-01-04 19:52:35
Writing application                      : mkvmerge v7.7.0 ('Six Voices') 64bit built on Feb 28 2015 23:39:33
Writing library                          : libebml v1.3.1 + libmatroska v1.4.2

Video
ID                                      : 1
Format                                  : HEVC
Format/Info                              : High Efficiency Video Coding
Format profile                          : Main [email protected]@Main
Codec ID                                : V_MPEGH/ISO/HEVC
Duration                                : 2 h 31 min
Bit rate                                : 2 001 kb/s
Width                                    : 1 920 pixels
Height                                  : 1 012 pixels
Display aspect ratio                    : 1.897
Frame rate mode                          : Constant
Frame rate                              : 23.976 (24000/1001) FPS
Color space                              : YUV
Chroma subsampling                      : 4:2:0
Bit depth                                : 10 bits
Bits/(Pixel*Frame)                      : 0.043
Stream size                              : 2.11 GiB (84%)
Title                                    : Wonder Woman 1984 (2020) IMAX 1080p WEBRip x265 English AC3 5.1 - MeGUiL
Writing library                          : x265 3.3+4-rarbg-30eb4de83092:[Linux][GCC 8.3.1][64 bit] 10bit
Default                                  : Yes
Forced                                  : No

Audio
ID                                      : 2
Format                                  : AC-3
Format/Info                              : Audio Coding 3
Commercial name                          : Dolby Digital
Codec ID                                : A_AC3
Duration                                : 2 h 31 min
Bit rate mode                            : Constant
Bit rate                                : 384 kb/s
Channel(s)                              : 6 channels
Channel layout                          : L R C LFE Ls Rs
Sampling rate                            : 48.0 kHz
Frame rate                              : 31.250 FPS (1536 SPF)
Bit depth                                : 16 bits
Compression mode                        : Lossy
Stream size                              : 415 MiB (16%)
Title                                    : AC3 384 kbps 5.1 - MeGUiL
Service kind                            : Complete Main
Default                                  : Yes
Forced                                  : No


[/size]

Facebook Twitter Digg Reddit LinkedIn StumbleUpon Email
Show Demonoid some love with BitCoin: 1DNoidyJgB159bLJT5hDnCkZ4uQrhkfBVk How to get BitCoins?
Peers: 38 seeders, 40 leechers, 3490 total - Updated: 8 days ago [ Update now ]
Size: 2.54 GB 

Sponsored links
Related torrents
Torrents you may also like:
Download this torrent
Extra information
Tracker: udp://tracker.opentrackr.org:1337/announce
Torrent hash: E67E0AE0 C6EAC7FB E8ECD4C9 DFE3D816 CC18A434
Files described inside the torrent: 2 [ Click here to show the full list ]
Comments
No comments posted yet

Disclaimer: None of the files shown here are actually hosted or transmitted by this server. The links are provided solely by this site's users. The site moderation is also a service provided by the site's users. The administrator of this site (demonoid.is) cannot be held responsible for what its users post, or any other actions of its users. You may not use this site to distribute or download any material when you do not have the legal rights to do so. It is your own responsibility to adhere to these terms.

By using this site you indicate your agreement to our terms and conditions
   
Link to us | Contact us | API | Commemoration | Twitter: @DemonoidBT | Feeds/RSS | DMCA
This site and the Demonoid logo are Copyright © Demonoid. All rights reserved.

Show Demonoid some love with 1DNoidyJgB159bLJT5hDnCkZ4uQrhkfBVk