Please help the site by white listing it in your Ad-Blocker.


User log in
User registration
Registrations are closed. If you have an invitation code, click here, or join our twitter, we post invites often there.
Email: forgotten email?
Password: lost pass?
  Resend activation email
Protect your privacy! Use a VPN When Downloading Torrents
Your IP Address is . Location is .
Your Internet Provider is tracking your torrent activity! Hide your IP ADDRESS with a VPN!
We strongly recommend using NORD VPN to anonymize your torrenting.
Also, while you are using NORD you get No Ads for Demonoid members Get VPN Now!
Details for Blade Runner 2049 2017 Bonus BR EAC3 VFF VFQ ENG 1080p x265 10Bits T0M (Blade Runner 2)
Created by Ratio: 1.00T0M 1 year ago[ Add to bookmark ]
Movies : Sci-Fi : HEVC / x265 : French

______________________________________________________________________________________________________________
Blade Runner 2049 2017
Bluray · 1080p x265 10bits · DD+ 5.1 VFF VFQ ENG
More Bonus
¯¯¯¯¯¯¯¯¯¯¯¯¯¯¯¯¯¯¯¯¯¯¯¯¯¯¯¯¯¯¯¯¯¯¯¯¯¯¯¯¯¯¯¯¯¯¯¯¯¯¯¯¯¯¯¯¯¯¯¯¯¯¯¯¯¯¯¯¯¯¯¯¯¯¯¯¯¯¯¯



Year : 2017
Country : United States
Original title : Blade Runner 2049
Director : Denis Villeneuve
Music from : Benjamin Wallfisch, Hans Zimmer
Actors : Ryan Gosling, Harrison Ford, David Bautista, Jared Leto, Ana de Armas, Sylvia Hoeks
Robin Wright, Mackenzie Davis, Carla Juri, Lennie James, Sean Young, Edward James Olmos
Barkhad Abdi, Hiam Abbass, Wood Harris, David Dastmalchian
Genre : Sci-Fi, Crime, CyberPunk, Thriller
Certificate :   Scenes, comments, or images may offend viewers' sensibilities
Budget : 185 000 000 $ · Recipe : 259 205 501 $ · ratio : 140 %
Link : Allociné 3,7/5 ·  IMDB 8,3/10 ·  TMDB 73% ·  SensCritique 7,4/10 ·  Wiki ·  Bande Annonce

French Plot
Les Réplicants sont des humains issus de la bio-ingénierie conçus par la Tyrell Corporation pour servir dans les colonies de l'espace, leur force faisant d'eux des esclaves idéals. Après une série de violentes révoltes, leur production a été interdite et Tyrell Corp a fait faillite. L'effondrement des écosystèmes au milieu des années 2020 a favorisé l'essor de l'industriel Niander Wallace. Sa maîtrise de l'agriculture de synthèse a évité la famine. Wallace a racheté ce qui restait de Tyrell Corp et créé une ligne de Réplicants obéissants. Nombre d'anciens modèles, les Nexus 8, sans durée de vie limitée, ont survécu. Ils sont traqués et "retirés". Ceux qui les traquent portent toujours le nom de… BLADE RUNNER…
Librement inspiré du roman : Les androïdes rêvent-ils de moutons électriques (Do Androids Dream of Electric Sheep?) de Philip K. Dick

Bonus
Bluray Opening - 2mn - 5,20Mib - 1920x1080 HEVC 10Bits - VO - 62c23bcc
Designing the World - 21mn - 132,0Mib - 1920x1080 HEVC 10Bits - VOSTFR - 915312ff
Game - Blade Runner Revelations - 35s - 3,65Mib - 1920x1080 HEVC 10Bits - VO - b8b02626
Making of - 11mn - 51,20Mib - 1920x1080 HEVC 10Bits - VOSTFR - a921efaa
Story 1 - Watanabe - Blade Runner Black Out 2022 - 15mn - 455,0Mib - 1920x1080 HEVC 10Bits - VOSTFR - 312c70dd
Story 2 - Luke Scott - 2036 Nexus Dawn - 6mn - 59,70Mib - 1920x1080 HEVC 10Bits - VOSTFR - 5a01fe94
Story 3 - Luke Scott - 2048 Nowhere to Run - 5mn - 73,80Mib - 1920x1080 HEVC 10Bits - VOSTFR - fce8affe
To be human - Casting - 17mn - 80,90Mib - 1920x1080 HEVC 10Bits - VOSTFR - 44aa9269
8 bonus, total 861,4Mib 1h21mn



Technical Details
¯¯¯¯¯¯¯¯¯¯¯¯¯¯¯¯¯¯¯¯¯¯¯¯¯¯¯¯¯¯¯¯¯¯¯¯¯¯¯¯¯¯¯¯¯¯¯¯¯¯¯¯¯¯¯¯¯¯¯¯¯¯¯¯¯¯¯¯¯¯¯¯¯¯¯¯¯¯¯¯¯¯¯¯¯¯¯¯¯¯¯¯¯¯¯¯¯¯¯¯
     
Media
Matroska 4,36Gio 2h43mn 3811Kbps, Total 5,20Gio 4h04mn
Video
HEVC/H265 1920x800 @23.976 [email protected]@Main 10bits 2429Kbps VerySlow
Audio
    True French 5.1 EAC3 448Kbps 48KHz 16bits
    Quebec French 5.1 EAC3 448Kbps 48KHz 16bits
    English 5.1 EAC3 448Kbps 48KHz 16bits
Subtitles
  True French forced SRT
  True French full SRT
  True French full PGS
  Quebec French forced PGS
  Quebec French full PGS
  English full PGS
  English full SDH PGS
Chapters
International
Screenshot
     

NFO
¯¯¯¯¯¯¯¯¯¯¯¯¯¯¯¯¯¯¯¯¯¯¯¯¯¯¯¯¯¯¯¯¯¯¯¯¯¯¯¯¯¯¯¯¯¯¯¯¯¯¯¯¯¯¯¯¯¯¯¯¯¯¯¯¯¯¯¯¯¯¯¯¯¯¯¯¯¯¯¯¯¯¯¯¯¯¯¯¯¯¯¯¯¯¯¯¯¯¯¯

General
Format                                  : Matroska
Format version                          : Version 4 / Version 2
File size                                : 4.36 GiB
Duration                                : 2 h 43 min
Overall bit rate                        : 3 811 kb/s
Movie name                              : Blade Runner 2049 2017 de Denis Villeneuve avec Ryan Gosling, Harrison Ford, David Bautista, Jared Leto, Ana de Armas, Sylvia Hoeks, Robin Wright, Mackenzie Davis, Carla Juri, Lennie James, Sean Young, Edward James Olmos, Barkhad Abdi, Hiam Abbass, Wood Harris, David Dastmalchian. Heurter la sensibilité (allocine=197686,imdb=tt1856101) T0M
Encoded date                            : UTC 2018-02-12 15:05:54
Writing application                      : mkvmerge v8.0.0 ('Til The Day That I Die') 64bit
Writing library                          : libebml v1.3.1 + libmatroska v1.4.2
Cover                                    : Yes
Attachments                              : Cover.jpg / Cover2.jpg / Cover3.jpg / Cover4.jpg / Logo.png / Poster.jpg / Poster2.jpg / Poster3.jpg / Poster4.jpg / Poster5.jpg

Video
ID                                      : 1
Format                                  : HEVC
Format/Info                              : High Efficiency Video Coding
Format profile                          : Main [email protected]@Main
Codec ID                                : V_MPEGH/ISO/HEVC
Duration                                : 2 h 43 min
Bit rate                                : 2 429 kb/s
Width                                    : 1 920 pixels
Height                                  : 800 pixels
Display aspect ratio                    : 2.40:1
Frame rate mode                          : Constant
Frame rate                              : 23.976 (24000/1001) FPS
Color space                              : YUV
Chroma subsampling                      : 4:2:0
Bit depth                                : 10 bits
Bits/(Pixel*Frame)                      : 0.066
Stream size                              : 2.78 GiB (64%)
Title                                    : Video HEVC 1920x800 @23.976 x265 [email protected]@Main 10bits veryslow 1946mn
Writing library                          : x265 1.9:[Windows][GCC 4.9.2][64 bit] 10bit
Encoding settings                        : wpp / ctu=64 / min-cu-size=8 / max-tu-size=32 / tu-intra-depth=3 / tu-inter-depth=3 / me=3 / subme=4 / merange=57 / rect / amp / max-merge=4 / temporal-mvp / no-early-skip / rdpenalty=0 / no-tskip / no-tskip-fast / strong-intra-smoothing / no-lossless / no-cu-lossless / no-constrained-intra / no-fast-intra / open-gop / no-temporal-layers / interlace=0 / keyint=240 / min-keyint=24 / scenecut=40 / rc-lookahead=40 / lookahead-slices=0 / bframes=8 / bframe-bias=0 / b-adapt=2 / ref=5 / limit-refs=1 / limit-modes / weightp / weightb / aq-mode=1 / qg-size=32 / aq-strength=1.00 / cbqpoffs=0 / crqpoffs=0 / rd=6 / psy-rd=2.00 / rdoq-level=2 / psy-rdoq=1.00 / signhide / deblock / sao / no-sao-non-deblock / b-pyramid / cutree / no-intra-refresh / rc=crf / crf=16.7 / qcomp=0.60 / qpmin=0 / qpmax=51 / qpstep=4 / ipratio=1.40 / pbratio=1.30
Default                                  : Yes
Forced                                  : No
Color range                              : Limited
Color primaries                          : BT.709
Transfer characteristics                : BT.709
Matrix coefficients                      : BT.709

Audio #1
ID                                      : 2
Format                                  : E-AC-3
Format/Info                              : Enhanced Audio Coding 3
Codec ID                                : A_EAC3
Duration                                : 2 h 43 min
Bit rate mode                            : Constant
Bit rate                                : 448 kb/s
Channel(s)                              : 6 channels
Channel positions                        : Front: L C R, Side: L R, LFE
Sampling rate                            : 48.0 kHz
Frame rate                              : 187.500 FPS (256 SPF)
Compression mode                        : Lossy
Delay relative to video                  : -65 ms
Stream size                              : 525 MiB (12%)
Title                                    : Français 5.1 EAC3 448kbps 48khz 16bits
Language                                : French
Service kind                            : Complete Main
Default                                  : Yes
Forced                                  : No

Audio #2
ID                                      : 3
Format                                  : E-AC-3
Format/Info                              : Enhanced Audio Coding 3
Codec ID                                : A_EAC3
Duration                                : 2 h 43 min
Bit rate mode                            : Constant
Bit rate                                : 448 kb/s
Channel(s)                              : 6 channels
Channel positions                        : Front: L C R, Side: L R, LFE
Sampling rate                            : 48.0 kHz
Frame rate                              : 187.500 FPS (256 SPF)
Compression mode                        : Lossy
Delay relative to video                  : -78 ms
Stream size                              : 525 MiB (12%)
Title                                    : Québécois 5.1 EAC3 448kbps 48khz 16bits
Language                                : French
Service kind                            : Complete Main
Default                                  : No
Forced                                  : No

Audio #3
ID                                      : 4
Format                                  : E-AC-3
Format/Info                              : Enhanced Audio Coding 3
Codec ID                                : A_EAC3
Duration                                : 2 h 43 min
Bit rate mode                            : Constant
Bit rate                                : 448 kb/s
Channel(s)                              : 6 channels
Channel positions                        : Front: L C R, Side: L R, LFE
Sampling rate                            : 48.0 kHz
Frame rate                              : 187.500 FPS (256 SPF)
Compression mode                        : Lossy
Delay relative to video                  : -78 ms
Stream size                              : 525 MiB (12%)
Title                                    : English 5.1 EAC3 448kbps 48khz 16bits
Language                                : English
Service kind                            : Complete Main
Default                                  : No
Forced                                  : No

Text #1
ID                                      : 5
Format                                  : UTF-8
Codec ID                                : S_TEXT/UTF8
Codec ID/Info                            : UTF-8 Plain Text
Duration                                : 2 h 43 min
Bit rate                                : 1 b/s
Count of elements                        : 52
Stream size                              : 2.03 KiB (0%)
Title                                    : Français forcé (Passages)
Language                                : French
Default                                  : Yes
Forced                                  : Yes

Text #2
ID                                      : 6
Format                                  : UTF-8
Codec ID                                : S_TEXT/UTF8
Codec ID/Info                            : UTF-8 Plain Text
Duration                                : 2 h 43 min
Bit rate                                : 25 b/s
Count of elements                        : 1063
Stream size                              : 30.5 KiB (0%)
Title                                    : Français complet (Tous le film)
Language                                : French
Default                                  : No
Forced                                  : No

Text #3
ID                                      : 7
Format                                  : PGS
Muxing mode                              : zlib
Codec ID                                : S_HDMV/PGS
Codec ID/Info                            : Picture based subtitle format used on BDs/HD-DVDs
Duration                                : 2 h 42 min
Bit rate                                : 7 956 b/s
Count of elements                        : 2122
Stream size                              : 9.25 MiB (0%)
Title                                    : Français complet (Tous le film) PGS
Language                                : French
Default                                  : No
Forced                                  : No

Text #4
ID                                      : 8
Format                                  : PGS
Muxing mode                              : zlib
Codec ID                                : S_HDMV/PGS
Codec ID/Info                            : Picture based subtitle format used on BDs/HD-DVDs
Duration                                : 2 h 17 min
Bit rate                                : 326 b/s
Count of elements                        : 100
Stream size                              : 328 KiB (0%)
Title                                    : Québécois forcé (Passages) PGS
Language                                : French
Default                                  : No
Forced                                  : No

Text #5
ID                                      : 9
Format                                  : PGS
Muxing mode                              : zlib
Codec ID                                : S_HDMV/PGS
Codec ID/Info                            : Picture based subtitle format used on BDs/HD-DVDs
Duration                                : 2 h 42 min
Bit rate                                : 4 802 b/s
Count of elements                        : 2154
Stream size                              : 5.59 MiB (0%)
Title                                    : Québécois complet (Tous le film) PGS
Language                                : French
Default                                  : No
Forced                                  : No

Text #6
ID                                      : 10
Format                                  : PGS
Muxing mode                              : zlib
Codec ID                                : S_HDMV/PGS
Codec ID/Info                            : Picture based subtitle format used on BDs/HD-DVDs
Duration                                : 2 h 32 min
Bit rate                                : 7 889 b/s
Count of elements                        : 1950
Stream size                              : 8.59 MiB (0%)
Title                                    : English full (All the movie) PGS
Language                                : English
Default                                  : No
Forced                                  : No

Text #7
ID                                      : 11
Format                                  : PGS
Muxing mode                              : zlib
Codec ID                                : S_HDMV/PGS
Codec ID/Info                            : Picture based subtitle format used on BDs/HD-DVDs
Duration                                : 2 h 29 min
Bit rate                                : 7 070 b/s
Count of elements                        : 2716
Stream size                              : 7.55 MiB (0%)
Title                                    : English full SDH PGS
Language                                : English
Default                                  : No
Forced                                  : No

Menu
00:00:00.000                            : :01 - 00:00:00
00:12:50.299                            : :02 - 00:12:50
00:23:43.410                            : :03 - 00:23:43
00:37:15.012                            : :04 - 00:37:14
00:43:04.445                            : :05 - 00:43:04
00:49:38.630                            : :06 - 00:49:38
00:58:49.681                            : :07 - 00:58:49
01:04:24.807                            : :08 - 01:04:24
01:16:01.420                            : :09 - 01:16:01
01:25:26.609                            : :10 - 01:25:26
01:36:29.188                            : :11 - 01:36:29
01:51:09.234                            : :12 - 01:51:09
02:01:51.000                            : :13 - 02:01:50
02:08:54.506                            : :14 - 02:08:54
02:16:56.613                            : :15 - 02:16:56
02:28:00.860                            : :16 - 02:28:00
02:33:01.830                            : :17 - 02:33:01
02:35:12.230                            : :18 - 02:35:12


Facebook Twitter Digg Reddit LinkedIn StumbleUpon Email
Show Demonoid some love with BitCoin: 1DNoidyJgB159bLJT5hDnCkZ4uQrhkfBVk How to get BitCoins?
Peers: 2 seeders, 0 leechers, 18 total - Updated: 2 months ago [ Update now ]
Size: 5.20 GB 

Sponsored links
Related torrents
Torrents you may also like:
Download this torrent
Extra information
Tracker: udp://tracker.opentrackr.org:1337/announce
Torrent hash: 4DAC6711 61D57633 1ACFAED2 93B829F1 E64220E5
Files described inside the torrent: 11 [ Click here to show the full list ]
Comments
No comments posted yet

Disclaimer: None of the files shown here are actually hosted or transmitted by this server. The links are provided solely by this site's users. The site moderation is also a service provided by the site's users. The administrator of this site (demonoid.is) cannot be held responsible for what its users post, or any other actions of its users. You may not use this site to distribute or download any material when you do not have the legal rights to do so. It is your own responsibility to adhere to these terms.

By using this site you indicate your agreement to our terms and conditions
   
Link to us | Contact us | API | Commemoration | Twitter: @DemonoidBT | Feeds/RSS | DMCA
This site and the Demonoid logo are Copyright © Demonoid. All rights reserved.

Show Demonoid some love with 1DNoidyJgB159bLJT5hDnCkZ4uQrhkfBVk