Please help the site by white listing it in your Ad-Blocker.


User log in
User registration
Registrations are closed. If you have an invitation code, click here, or join our twitter, we post invites often there.
Email: forgotten email?
Password: lost pass?
  Resend activation email
Protect your privacy! Use a VPN When Downloading Torrents
Your IP Address is . Location is .
Your Internet Provider is tracking your torrent activity! Hide your IP ADDRESS with a VPN!
We strongly recommend using NORD VPN to anonymize your torrenting.
Also, while you are using NORD you get No Ads for Demonoid members Get VPN Now!
Details for Non-Stop 2014 x264 720p Esub BluRay Dual Audio English Hindi Sadeemrdp GOPI SAHI
Created by Ratio: 1.00gopisahi 10 months ago[ Add to bookmark ]
Movies : Action : HD 720p : Hindi
https://www.gopisahi.in/

https://client.sadeemrdp.com/aff.php?aff=152



Non-Stop 2014 x264 720p Esub BluRay Dual Audio English Hindi Sadeemrdp GOPI SAHI


Format                        : Matroska

Format version                : Version 4

File size                      : 802 MiB

Duration                      : 1 h 41 min

Overall bit rate              : 1 101 kb/s

Movie name                    : Non-Stop 2014 GOPI SAHI


Video

ID                            : 1

Format                        : AVC

Format/Info                    : Advanced Video Codec

Format profile                : [email protected]

Format settings                : CABAC / 5 Ref Frames

Format settings, CABAC        : Yes

Format settings, Reference fra : 5 frames

Codec ID                      : V_MPEG4/ISO/AVC

Duration                      : 1 h 41 min

Bit rate                      : 899 kb/s

Width                          : 1 280 pixels

Height                        : 720 pixels

Display aspect ratio          : 16:9

Frame rate mode                : Constant

Frame rate                    : 25.000 FPS

Color space                    : YUV

Chroma subsampling            : 4:2:0

Bit depth                      : 8 bits

Scan type                      : Progressive

Bits/(Pixel*Frame)            : 0.039

Stream size                    : 654 MiB (82%)

Title                          : GOPI SAHI

Writing library                : x264 core 157 r2935 545de2f


Audio #1

ID                            : 2

Format                        : AAC LC

Format/Info                    : Advanced Audio Codec Low Complexity

Codec ID                      : A_AAC-2

Duration                      : 1 h 41 min

Bit rate                      : 96.0 kb/s

Channel(s)                    : 2 channels

Channel layout                : L R

Sampling rate                  : 48.0 kHz

Frame rate                    : 46.875 FPS (1024 SPF)

Compression mode              : Lossy

Delay relative to video        : -21 ms

Stream size                    : 70.2 MiB (9%)

Title                          : GOPI SAHI

Language                      : Hindi

Default                        : Yes

Forced                        : No


Audio #2

ID                            : 3

Format                        : AAC LC

Format/Info                    : Advanced Audio Codec Low Complexity

Codec ID                      : A_AAC-2

Duration                      : 1 h 41 min

Bit rate                      : 96.0 kb/s

Channel(s)                    : 2 channels

Channel layout                : L R

Sampling rate                  : 48.0 kHz

Frame rate                    : 46.875 FPS (1024 SPF)

Compression mode              : Lossy

Delay relative to video        : -21 ms

Stream size                    : 70.3 MiB (9%)

Title                          : GOPI SAHI

Language                      : English

Default                        : No

Forced                        : No


Text

ID                            : 4

Format                        : PGS

Muxing mode                    : zlib

Codec ID                      : S_HDMV/PGS

Codec ID/Info                  : Picture based subtitle format used on BDs/HD-DVDs

Duration                      : 1 h 34 min

Bit rate                      : 17.4 kb/s

Count of elements              : 2146

Stream size                    : 11.8 MiB (1%)

Title                          : GOPI SAHI

Language                      : English

Default                        : Yes

Forced                        : Yes


Menu

00:00:00.000                  : en:Chapter 01

00:12:28.320                  : en:Chapter 02

00:24:51.360                  : en:Chapter 03

00:40:21.120                  : en:Chapter 04

00:54:50.400                  : en:Chapter 05

01:08:59.600                  : en:Chapter 06

01:21:52.800                  : en:Chapter 07

01:35:48.480                  : en:Chapter 0





Facebook Twitter Digg Reddit LinkedIn StumbleUpon Email
Show Demonoid some love with BitCoin: 1DNoidyJgB159bLJT5hDnCkZ4uQrhkfBVk How to get BitCoins?
Peers: 4 seeders, 0 leechers, 179 total - Updated: 5 days ago
Size: 801.83 MB 

Sponsored links
Related torrents
Torrents you may also like:
Download this torrent
Extra information
Tracker: udp://tracker.coppersurfer.tk:6969/announce
Torrent hash: D23E6D77 A11D32C2 7CCF76D0 8C7CEDDF 68509CC7
Files described inside the torrent: 4 [ Click here to show the full list ]
Comments
No comments posted yet

Disclaimer: None of the files shown here are actually hosted or transmitted by this server. The links are provided solely by this site's users. The site moderation is also a service provided by the site's users. The administrator of this site (demonoid.is) cannot be held responsible for what its users post, or any other actions of its users. You may not use this site to distribute or download any material when you do not have the legal rights to do so. It is your own responsibility to adhere to these terms.

By using this site you indicate your agreement to our terms and conditions
   
Link to us | Contact us | API | Commemoration | Twitter: @DemonoidBT | Feeds/RSS | DMCA
This site and the Demonoid logo are Copyright © Demonoid. All rights reserved.

Show Demonoid some love with 1DNoidyJgB159bLJT5hDnCkZ4uQrhkfBVk